  0
SECTION
  2
HEADER
  9
$ACADVER
  1
AC1015
  9
$ACADMAINTVER
 70
     6
  9
$DWGCODEPAGE
  3
ANSI_932
  9
$INSBASE
 10
0.0
 20
0.0
 30
0.0
  9
$EXTMIN
 10
-9.241971557336393
 20
-84.22115537814683
 30
-0.00000001
  9
$EXTMAX
 10
89.56610442475676
 20
173.8552449324247
 30
0.00000001
  9
$LIMMIN
 10
11.57448730468749
 20
9.446796332465277
  9
$LIMMAX
 10
200.4983561197916
 20
282.012415907118
  9
$ORTHOMODE
 70
     1
  9
$REGENMODE
 70
     1
  9
$FILLMODE
 70
     1
  9
$QTEXTMODE
 70
     0
  9
$MIRRTEXT
 70
     1
  9
$LTSCALE
 40
1.0
  9
$ATTMODE
 70
     1
  9
$TEXTSIZE
 40
0.0
  9
$TRACEWID
 40
0.05
  9
$TEXTSTYLE
  7
Standard
  9
$CLAYER
  8
0
  9
$CELTYPE
  6
ByLayer
  9
$CECOLOR
 62
   256
  9
$CELTSCALE
 40
1.0
  9
$DISPSILH
 70
     0
  9
$DIMSCALE
 40
1.0
  9
$DIMASZ
 40
2.0
  9
$DIMEXO
 40
2.0
  9
$DIMDLI
 40
3.75
  9
$DIMRND
 40
0.0
  9
$DIMDLE
 40
0.0
  9
$DIMEXE
 40
0.5
  9
$DIMTP
 40
0.0
  9
$DIMTM
 40
0.0
  9
$DIMTXT
 40
2.5
  9
$DIMCEN
 40
2.0
  9
$DIMTSZ
 40
0.0
  9
$DIMTOL
 70
     0
  9
$DIMLIM
 70
     0
  9
$DIMTIH
 70
     0
  9
$DIMTOH
 70
     0
  9
$DIMSE1
 70
     0
  9
$DIMSE2
 70
     0
  9
$DIMTAD
 70
     1
  9
$DIMZIN
 70
     8
  9
$DIMBLK
  1

  9
$DIMASO
 70
     1
  9
$DIMSHO
 70
     1
  9
$DIMPOST
  1

  9
$DIMAPOST
  1

  9
$DIMALT
 70
     0
  9
$DIMALTD
 70
     3
  9
$DIMALTF
 40
0.03937007874016
  9
$DIMLFAC
 40
1.0
  9
$DIMTOFL
 70
     1
  9
$DIMTVP
 40
0.0
  9
$DIMTIX
 70
     1
  9
$DIMSOXD
 70
     1
  9
$DIMSAH
 70
     0
  9
$DIMBLK1
  1

  9
$DIMBLK2
  1

  9
$DIMSTYLE
  2
ISO-25 1／10
  9
$DIMCLRD
 70
     0
  9
$DIMCLRE
 70
     0
  9
$DIMCLRT
 70
     0
  9
$DIMTFAC
 40
1.0
  9
$DIMGAP
 40
0.75
  9
$DIMJUST
 70
     0
  9
$DIMSD1
 70
     0
  9
$DIMSD2
 70
     0
  9
$DIMTOLJ
 70
     0
  9
$DIMTZIN
 70
     8
  9
$DIMALTZ
 70
     0
  9
$DIMALTTZ
 70
     0
  9
$DIMUPT
 70
     0
  9
$DIMDEC
 70
     8
  9
$DIMTDEC
 70
     8
  9
$DIMALTU
 70
     2
  9
$DIMALTTD
 70
     3
  9
$DIMTXSTY
  7
Standard
  9
$DIMAUNIT
 70
     0
  9
$DIMADEC
 70
     8
  9
$DIMALTRND
 40
0.0
  9
$DIMAZIN
 70
     0
  9
$DIMDSEP
 70
    46
  9
$DIMATFIT
 70
     3
  9
$DIMFRAC
 70
     0
  9
$DIMLDRBLK
  1

  9
$DIMLUNIT
 70
     2
  9
$DIMLWD
 70
    -2
  9
$DIMLWE
 70
    -2
  9
$DIMTMOVE
 70
     0
  9
$LUNITS
 70
     2
  9
$LUPREC
 70
     4
  9
$SKETCHINC
 40
0.1
  9
$FILLETRAD
 40
0.0
  9
$AUNITS
 70
     0
  9
$AUPREC
 70
     0
  9
$MENU
  1
acad
  9
$ELEVATION
 40
0.0
  9
$PELEVATION
 40
0.0
  9
$THICKNESS
 40
0.0
  9
$LIMCHECK
 70
     0
  9
$CHAMFERA
 40
0.0
  9
$CHAMFERB
 40
0.0
  9
$CHAMFERC
 40
0.0
  9
$CHAMFERD
 40
0.0
  9
$SKPOLY
 70
     0
  9
$TDCREATE
 40
2460395.729751238
  9
$TDUCREATE
 40
2460395.354751238
  9
$TDUPDATE
 40
2460398.388984271
  9
$TDUUPDATE
 40
2460398.013984271
  9
$TDINDWG
 40
0.0355734375
  9
$TDUSRTIMER
 40
0.0355734375
  9
$USRTIMER
 70
     1
  9
$ANGBASE
 50
0.0
  9
$ANGDIR
 70
     0
  9
$PDMODE
 70
     0
  9
$PDSIZE
 40
0.0
  9
$PLINEWID
 40
0.0
  9
$SPLFRAME
 70
     0
  9
$SPLINETYPE
 70
     6
  9
$SPLINESEGS
 70
     8
  9
$HANDSEED
  5
1E2C
  9
$SURFTAB1
 70
     6
  9
$SURFTAB2
 70
     6
  9
$SURFTYPE
 70
     6
  9
$SURFU
 70
     6
  9
$SURFV
 70
     6
  9
$UCSBASE
  2

  9
$UCSNAME
  2

  9
$UCSORG
 10
0.0
 20
0.0
 30
0.0
  9
$UCSXDIR
 10
1.0
 20
0.0
 30
0.0
  9
$UCSYDIR
 10
0.0
 20
1.0
 30
0.0
  9
$UCSORTHOREF
  2

  9
$UCSORTHOVIEW
 70
     0
  9
$UCSORGTOP
 10
0.0
 20
0.0
 30
0.0
  9
$UCSORGBOTTOM
 10
0.0
 20
0.0
 30
0.0
  9
$UCSORGLEFT
 10
0.0
 20
0.0
 30
0.0
  9
$UCSORGRIGHT
 10
0.0
 20
0.0
 30
0.0
  9
$UCSORGFRONT
 10
0.0
 20
0.0
 30
0.0
  9
$UCSORGBACK
 10
0.0
 20
0.0
 30
0.0
  9
$PUCSBASE
  2

  9
$PUCSNAME
  2

  9
$PUCSORG
 10
0.0
 20
0.0
 30
0.0
  9
$PUCSXDIR
 10
1.0
 20
0.0
 30
0.0
  9
$PUCSYDIR
 10
0.0
 20
1.0
 30
0.0
  9
$PUCSORTHOREF
  2

  9
$PUCSORTHOVIEW
 70
     0
  9
$PUCSORGTOP
 10
0.0
 20
0.0
 30
0.0
  9
$PUCSORGBOTTOM
 10
0.0
 20
0.0
 30
0.0
  9
$PUCSORGLEFT
 10
0.0
 20
0.0
 30
0.0
  9
$PUCSORGRIGHT
 10
0.0
 20
0.0
 30
0.0
  9
$PUCSORGFRONT
 10
0.0
 20
0.0
 30
0.0
  9
$PUCSORGBACK
 10
0.0
 20
0.0
 30
0.0
  9
$USERI1
 70
     0
  9
$USERI2
 70
     0
  9
$USERI3
 70
     0
  9
$USERI4
 70
     0
  9
$USERI5
 70
     0
  9
$USERR1
 40
0.0
  9
$USERR2
 40
0.0
  9
$USERR3
 40
0.0
  9
$USERR4
 40
0.0
  9
$USERR5
 40
0.0
  9
$WORLDVIEW
 70
     1
  9
$SHADEDGE
 70
     3
  9
$SHADEDIF
 70
    70
  9
$TILEMODE
 70
     1
  9
$MAXACTVP
 70
    16
  9
$PINSBASE
 10
0.0
 20
0.0
 30
0.0
  9
$PLIMCHECK
 70
     0
  9
$PEXTMIN
 10
1.000000000000000E+20
 20
1.000000000000000E+20
 30
1.000000000000000E+20
  9
$PEXTMAX
 10
-1.000000000000000E+20
 20
-1.000000000000000E+20
 30
-1.000000000000000E+20
  9
$PLIMMIN
 10
0.0
 20
0.0
  9
$PLIMMAX
 10
12.0
 20
9.0
  9
$UNITMODE
 70
     0
  9
$VISRETAIN
 70
     0
  9
$PLINEGEN
 70
     1
  9
$PSLTSCALE
 70
     0
  9
$TREEDEPTH
 70
  3020
  9
$CMLSTYLE
  2
Standard
  9
$CMLJUST
 70
     0
  9
$CMLSCALE
 40
1.0
  9
$PROXYGRAPHICS
 70
     0
  9
$MEASUREMENT
 70
     1
  9
$CELWEIGHT
370
    13
  9
$ENDCAPS
280
     0
  9
$JOINSTYLE
280
     0
  9
$LWDISPLAY
290
     0
  9
$INSUNITS
 70
     0
  9
$HYPERLINKBASE
  1

  9
$STYLESHEET
  1

  9
$XEDIT
290
     1
  9
$CEPSNTYPE
380
     0
  9
$PSTYLEMODE
290
     1
  9
$FINGERPRINTGUID
  2

  9
$VERSIONGUID
  2
{5CC1D209-879F-4876-A0A6-BEA5509CAC09}
  9
$EXTNAMES
290
     1
  9
$PSVPSCALE
 40
0.0
  9
$OLESTARTUP
290
     0
  0
ENDSEC
  0
SECTION
  2
CLASSES
  0
CLASS
  1
LWPOLYLINE
  2
AcDbPolyline
  3
AutoCAD 2000
 90
    32768
280
     0
281
     1
  0
CLASS
  1
IMAGE
  2
AcDbRasterImage
  3
ISM
 90
    32895
280
     0
281
     1
  0
CLASS
  1
OLE2FRAME
  2
AcDbOle2Frame
  3
AutoCAD 2000
 90
    32768
280
     0
281
     1
  0
CLASS
  1
HATCH
  2
AcDbHatch
  3
AutoCAD 2000
 90
    32768
280
     0
281
     1
  0
CLASS
  1
DICTIONARYVAR
  2
AcDbDictionaryVar
  3
AutoCAD 2000
 90
    32768
280
     0
281
     0
  0
CLASS
  1
RASTERVARIABLES
  2
AcDbRasterVariables
  3
ISM
 90
        0
280
     0
281
     0
  0
CLASS
  1
IMAGEDEF
  2
AcDbRasterImageDef
  3
ISM
 90
    32768
280
     0
281
     0
  0
CLASS
  1
IMAGEDEF_REACTOR
  2
AcDbRasterImageDefReactor
  3
ISM
 90
    32769
280
     0
281
     0
  0
CLASS
  1
IDBUFFER
  2
AcDbIdBuffer
  3
AutoCAD 2000
 90
    32768
280
     0
281
     0
  0
CLASS
  1
SPATIAL_FILTER
  2
AcDbSpatialFilter
  3
AutoCAD 2000
 90
    32768
280
     0
281
     0
  0
CLASS
  1
XRECORD
  2
AcDbXrecord
  3
AutoCAD 2000
 90
    32768
280
     0
281
     0
  0
CLASS
  1
SORTENTSTABLE
  2
AcDbSortentsTable
  3
AutoCAD 2000
 90
    32768
280
     0
281
     0
  0
CLASS
  1
LAYER_INDEX
  2
AcDbLayerIndex
  3
AutoCAD 2000
 90
    32768
280
     0
281
     0
  0
CLASS
  1
SPATIAL_INDEX
  2
AcDbSpatialIndex
  3
AutoCAD 2000
 90
    32768
280
     0
281
     0
  0
CLASS
  1
OBJECT_PTR
  2
CAseDLPNTableRecord
  3
"ASE-LPNTableRecord"
 90
    32769
280
     0
281
     0
  0
CLASS
  1
LAYOUT
  2
AcDbLayout
  3
AutoCAD 2000
 90
        0
280
     0
281
     0
  0
CLASS
  1
PLOTSETTINGS
  2
AcDbPlotSettings
  3
AutoCAD 2000
 90
    32768
280
     0
281
     0
  0
CLASS
  1
ACDBDICTIONARYWDFLT
  2
AcDbDictionaryWithDefault
  3
AutoCAD 2000
 90
        0
280
     0
281
     0
  0
CLASS
  1
ACDBPLACEHOLDER
  2
AcDbPlaceHolder
  3
AutoCAD 2000
 90
        0
280
     0
281
     0
  0
CLASS
  1
VBA_PROJECT
  2
AcDbVbaProject
  3
acadvba
 90
    32768
280
     0
281
     0
  0
CLASS
  1
WIPEOUT
  2
AcDbWipeout
  3
WipeOut|AutoCAD Express Tool|expresstools@autodesk.com
 90
    32895
280
     0
281
     1
  0
CLASS
  1
WIPEOUTVARIABLES
  2
AcDbWipeoutVariables
  3
WipeOut|AutoCAD Express Tool|expresstools@autodesk.com
 90
        0
280
     0
281
     0
  0
CLASS
  1
RTEXT
  2
RText
  3
RText|AutoCAD Express Tool|expresstools@autodesk.com
 90
    32768
280
     0
281
     1
  0
CLASS
  1
ARCALIGNEDTEXT
  2
AcDbArcAlignedText
  3
ATEXT|AutoCAD Express Tool|expresstools@autodesk.com
 90
    32768
280
     0
281
     1
  0
ENDSEC
  0
SECTION
  2
TABLES
  0
TABLE
  2
VPORT
  5
7
330
0
100
AcDbSymbolTable
 70
     2
  0
VPORT
  5
1E2B
330
7
100
AcDbSymbolTableRecord
100
AcDbViewportTableRecord
  2
*Active
 70
     0
 10
0.0
 20
0.0
 11
1.0
 21
1.0
 12
65.59348406285256
 22
46.6742944865764
 13
0.0
 23
0.0
 14
1.0
 24
1.0
 15
0.0
 25
0.0
 16
0.0
 26
0.0
 36
1.0
 17
0.0
 27
0.0
 37
0.0
 40
312.4564859371592
 41
2.165492957746478
 42
50.0
 43
0.0
 44
0.0
 50
0.0
 51
0.0
 71
     0
 72
   100
 73
     1
 74
     1
 75
     0
 76
     0
 77
     0
 78
     0
281
     0
 65
     0
110
0.0
120
0.0
130
0.0
111
1.0
121
0.0
131
0.0
112
0.0
122
1.0
132
0.0
 79
     0
146
0.0
  0
ENDTAB
  0
TABLE
  2
LTYPE
  5
4
330
0
100
AcDbSymbolTable
 70
     1
  0
LTYPE
  5
11
330
4
100
AcDbSymbolTableRecord
100
AcDbLinetypeTableRecord
  2
ByBlock
 70
     0
  3

 72
    65
 73
     0
 40
0.0
  0
LTYPE
  5
12
330
4
100
AcDbSymbolTableRecord
100
AcDbLinetypeTableRecord
  2
ByLayer
 70
     0
  3

 72
    65
 73
     0
 40
0.0
  0
LTYPE
  5
13
330
4
100
AcDbSymbolTableRecord
100
AcDbLinetypeTableRecord
  2
Continuous
 70
     0
  3
Solid line
 72
    65
 73
     0
 40
0.0
  0
ENDTAB
  0
TABLE
  2
LAYER
  5
2
102
{ACAD_XDICTIONARY
360
EEA
102
}
330
0
100
AcDbSymbolTable
 70
     4
  0
LAYER
  5
14
330
2
100
AcDbSymbolTableRecord
100
AcDbLayerTableRecord
  2
0
 70
     0
 62
     7
  6
Continuous
370
    -3
390
1D
  0
LAYER
  5
115E
330
2
100
AcDbSymbolTableRecord
100
AcDbLayerTableRecord
  2
Defpoints
 70
     0
 62
     2
  6
Continuous
290
     0
370
    -3
390
1D
  0
LAYER
  5
115F
330
2
100
AcDbSymbolTableRecord
100
AcDbLayerTableRecord
  2
寸法
 70
     0
 62
     6
  6
Continuous
370
    -3
390
1D
  0
LAYER
  5
1160
330
2
100
AcDbSymbolTableRecord
100
AcDbLayerTableRecord
  2
文字
 70
     0
 62
    30
  6
Continuous
370
    -3
390
1D
  0
ENDTAB
  0
TABLE
  2
STYLE
  5
3
330
0
100
AcDbSymbolTable
 70
     1
  0
STYLE
  5
17
330
3
100
AcDbSymbolTableRecord
100
AcDbTextStyleTableRecord
  2
Standard
 70
     0
 40
0.0
 41
1.0
 50
0.0
 71
     0
 42
0.0
  3
txt
  4

  0
ENDTAB
  0
TABLE
  2
VIEW
  5
5
330
0
100
AcDbSymbolTable
 70
     0
  0
ENDTAB
  0
TABLE
  2
UCS
  5
6
330
0
100
AcDbSymbolTable
 70
     0
  0
ENDTAB
  0
TABLE
  2
APPID
  5
8
330
0
100
AcDbSymbolTable
 70
     1
  0
APPID
  5
16
330
8
100
AcDbSymbolTableRecord
100
AcDbRegAppTableRecord
  2
ACAD
 70
     0
  0
ENDTAB
  0
TABLE
  2
DIMSTYLE
  5
9
330
0
100
AcDbSymbolTable
 70
     2
100
AcDbDimStyleTable
 71
     1
340
1161
  0
DIMSTYLE
105
18
330
9
100
AcDbSymbolTableRecord
100
AcDbDimStyleTableRecord
  2
Standard
 70
     0
289
     0
340
17
  0
DIMSTYLE
105
1161
102
{ACAD_REACTORS
330
1A65
330
1CB7
330
1CF9
330
1CFE
330
1CBC
330
1DF5
102
}
330
9
100
AcDbSymbolTableRecord
100
AcDbDimStyleTableRecord
  2
ISO-25 1／10
 70
     0
 41
2.0
 42
2.0
 43
3.75
 44
0.5
 73
     0
 74
     0
 77
     1
 78
     8
140
2.5
141
2.0
143
0.03937007874016
147
0.75
171
     3
172
     1
174
     1
175
     1
179
     8
271
     8
272
     8
274
     3
283
     0
284
     8
340
17
  0
ENDTAB
  0
TABLE
  2
BLOCK_RECORD
  5
1
330
0
100
AcDbSymbolTable
 70
     6
  0
BLOCK_RECORD
  5
A
330
1
100
AcDbSymbolTableRecord
100
AcDbBlockTableRecord
  2
*MODEL_SPACE
340
20
  0
BLOCK_RECORD
  5
B
330
1
100
AcDbSymbolTableRecord
100
AcDbBlockTableRecord
  2
*PAPER_SPACE
340
21
  0
BLOCK_RECORD
  5
1A66
330
1
100
AcDbSymbolTableRecord
100
AcDbBlockTableRecord
  2
*D0
340
0
  0
BLOCK_RECORD
  5
1D92
330
1
100
AcDbSymbolTableRecord
100
AcDbBlockTableRecord
  2
*D1
340
0
  0
BLOCK_RECORD
  5
1D9E
330
1
100
AcDbSymbolTableRecord
100
AcDbBlockTableRecord
  2
*D2
340
0
  0
BLOCK_RECORD
  5
1DAA
330
1
100
AcDbSymbolTableRecord
100
AcDbBlockTableRecord
  2
*D3
340
0
  0
BLOCK_RECORD
  5
1DB6
330
1
100
AcDbSymbolTableRecord
100
AcDbBlockTableRecord
  2
*D4
340
0
  0
BLOCK_RECORD
  5
1DF6
330
1
100
AcDbSymbolTableRecord
100
AcDbBlockTableRecord
  2
*D5
340
0
  0
ENDTAB
  0
ENDSEC
  0
SECTION
  2
BLOCKS
  0
BLOCK
  5
D
330
A
100
AcDbEntity
  8
0
100
AcDbBlockBegin
  2
*MODEL_SPACE
 70
     0
 10
0.0
 20
0.0
 30
0.0
  3
*MODEL_SPACE
  1

  0
ENDBLK
  5
E
330
A
100
AcDbEntity
  8
0
100
AcDbBlockEnd
  0
BLOCK
  5
F
330
B
100
AcDbEntity
 67
     1
  8
0
100
AcDbBlockBegin
  2
*PAPER_SPACE
 70
     0
 10
0.0
 20
0.0
 30
0.0
  3
*PAPER_SPACE
  1

  0
ENDBLK
  5
10
330
B
100
AcDbEntity
 67
     1
  8
0
100
AcDbBlockEnd
  0
BLOCK
  5
1A70
330
1A66
100
AcDbEntity
  8
0
370
    13
100
AcDbBlockBegin
  2
*D0
 70
     1
 10
0.0
 20
0.0
 30
0.0
  3
*D0
  1

  0
LINE
  5
1E1D
330
1A66
100
AcDbEntity
  8
寸法
 62
     0
370
    -2
100
AcDbLine
 10
64.7185689341596
 20
166.7456663855671
 30
0.0
 11
64.7185689341596
 21
170.4802449324247
 31
0.0
  0
LINE
  5
1E1E
330
1A66
100
AcDbEntity
  8
寸法
 62
     0
370
    -2
100
AcDbLine
 10
48.21856893415961
 20
166.9802448609962
 30
0.0
 11
48.21856893415961
 21
170.4802449324247
 31
0.0
  0
LINE
  5
1E1F
330
1A66
100
AcDbEntity
  8
寸法
 62
     0
370
    -2
100
AcDbLine
 10
62.71856893415961
 20
169.9802449324247
 30
0.0
 11
50.21856893415961
 21
169.9802449324247
 31
0.0
  0
SOLID
  5
1E20
330
1A66
100
AcDbEntity
  8
寸法
 62
     0
370
    13
100
AcDbTrace
 10
62.71856893415961
 20
170.313578265758
 30
0.0
 11
62.71856893415961
 21
169.6469115990914
 31
0.0
 12
64.7185689341596
 22
169.9802449324247
 32
0.0
 13
64.7185689341596
 23
169.9802449324247
 33
0.0
  0
SOLID
  5
1E21
330
1A66
100
AcDbEntity
  8
寸法
 62
     0
370
    13
100
AcDbTrace
 10
50.21856893415961
 20
170.313578265758
 30
0.0
 11
50.21856893415961
 21
169.6469115990914
 31
0.0
 12
48.21856893415961
 22
169.9802449324247
 32
0.0
 13
48.21856893415961
 23
169.9802449324247
 33
0.0
  0
MTEXT
  5
1E22
330
1A66
100
AcDbEntity
  8
寸法
 62
     0
370
    13
100
AcDbMText
 10
56.46856893415961
 20
171.9802449324247
 30
0.0
 40
2.5
 41
0.0
 71
     5
 72
     1
  1
{\fMS UI Gothic|b0|i0|c128|p17;\U+2260}16.5
 73
     1
 44
1.0
  0
POINT
  5
1E23
330
1A66
100
AcDbEntity
  8
Defpoints
 62
     0
370
    13
100
AcDbPoint
 10
64.7185689341596
 20
164.7456663855671
 30
0.0
  0
POINT
  5
1E24
330
1A66
100
AcDbEntity
  8
Defpoints
 62
     0
370
    13
100
AcDbPoint
 10
48.21856893415961
 20
164.9802448609962
 30
0.0
  0
POINT
  5
1E25
330
1A66
100
AcDbEntity
  8
Defpoints
 62
     0
370
    13
100
AcDbPoint
 10
48.21856893415961
 20
169.9802449324247
 30
0.0
  0
ENDBLK
  5
1A71
330
1A66
100
AcDbEntity
  8
0
370
    13
100
AcDbBlockEnd
  0
BLOCK
  5
1D9C
330
1D92
100
AcDbEntity
  8
0
370
    13
100
AcDbBlockBegin
  2
*D1
 70
     1
 10
0.0
 20
0.0
 30
0.0
  3
*D1
  1

  0
LINE
  5
1DC2
330
1D92
100
AcDbEntity
  8
寸法
 62
     0
370
    -2
100
AcDbLine
 10
32.8661044525611
 20
2.978359005717708
 30
0.0
 11
32.8661044525611
 21
-10.72100406972608
 31
0.0
  0
LINE
  5
1DC3
330
1D92
100
AcDbEntity
  8
寸法
 62
     0
370
    -2
100
AcDbLine
 10
84.06610442475676
 20
2.978359005717886
 30
0.0
 11
84.06610442475676
 21
-10.72100406972608
 31
0.0
  0
LINE
  5
1DC4
330
1D92
100
AcDbEntity
  8
寸法
 62
     0
370
    -2
100
AcDbLine
 10
34.8661044525611
 20
-10.22100406972608
 30
0.0
 11
82.06610442475676
 21
-10.22100406972608
 31
0.0
  0
SOLID
  5
1DC5
330
1D92
100
AcDbEntity
  8
寸法
 62
     0
370
    13
100
AcDbTrace
 10
34.8661044525611
 20
-9.887670736392754
 30
0.0
 11
34.8661044525611
 21
-10.55433740305942
 31
0.0
 12
32.8661044525611
 22
-10.22100406972608
 32
0.0
 13
32.8661044525611
 23
-10.22100406972608
 33
0.0
  0
SOLID
  5
1DC6
330
1D92
100
AcDbEntity
  8
寸法
 62
     0
370
    13
100
AcDbTrace
 10
82.06610442475676
 20
-9.887670736392754
 30
0.0
 11
82.06610442475676
 21
-10.55433740305942
 31
0.0
 12
84.06610442475676
 22
-10.22100406972608
 32
0.0
 13
84.06610442475676
 23
-10.22100406972608
 33
0.0
  0
MTEXT
  5
1DC7
330
1D92
100
AcDbEntity
  8
寸法
 62
     0
370
    13
100
AcDbMText
 10
58.46610443865893
 20
-8.221004069726088
 30
0.0
 40
2.5
 41
0.0
 71
     5
 72
     1
  1
51.2
 73
     1
 44
1.0
  0
POINT
  5
1DC8
330
1D92
100
AcDbEntity
  8
Defpoints
 62
     0
370
    13
100
AcDbPoint
 10
32.8661044525611
 20
4.978359005717708
 30
0.0
  0
POINT
  5
1DC9
330
1D92
100
AcDbEntity
  8
Defpoints
 62
     0
370
    13
100
AcDbPoint
 10
84.06610442475676
 20
4.978359005717886
 30
0.0
  0
POINT
  5
1DCA
330
1D92
100
AcDbEntity
  8
Defpoints
 62
     0
370
    13
100
AcDbPoint
 10
84.06610442475676
 20
-10.22100406972608
 30
0.0
  0
ENDBLK
  5
1D9D
330
1D92
100
AcDbEntity
  8
0
370
    13
100
AcDbBlockEnd
  0
BLOCK
  5
1DA8
330
1D9E
100
AcDbEntity
  8
0
370
    13
100
AcDbBlockBegin
  2
*D2
 70
     1
 10
0.0
 20
0.0
 30
0.0
  3
*D2
  1

  0
LINE
  5
1DCB
330
1D9E
100
AcDbEntity
  8
寸法
 62
     0
370
    -2
100
AcDbLine
 10
45.45067870140385
 20
13.17805371157193
 30
0.0
 11
45.45067870140385
 21
-5.721004167382339
 31
0.0
  0
LINE
  5
1DCC
330
1D9E
100
AcDbEntity
  8
寸法
 62
     0
370
    -2
100
AcDbLine
 10
67.45067870140387
 20
12.99233498434353
 30
0.0
 11
67.45067870140387
 21
-5.721004167382339
 31
0.0
  0
LINE
  5
1DCD
330
1D9E
100
AcDbEntity
  8
寸法
 62
     0
370
    -2
100
AcDbLine
 10
47.45067870140386
 20
-5.221004167382337
 30
0.0
 11
65.45067870140387
 21
-5.221004167382337
 31
0.0
  0
SOLID
  5
1DCE
330
1D9E
100
AcDbEntity
  8
寸法
 62
     0
370
    13
100
AcDbTrace
 10
47.45067870140386
 20
-4.887670834049004
 30
0.0
 11
47.45067870140386
 21
-5.554337500715671
 31
0.0
 12
45.45067870140385
 22
-5.221004167382337
 32
0.0
 13
45.45067870140385
 23
-5.221004167382337
 33
0.0
  0
SOLID
  5
1DCF
330
1D9E
100
AcDbEntity
  8
寸法
 62
     0
370
    13
100
AcDbTrace
 10
65.45067870140387
 20
-4.887670834049004
 30
0.0
 11
65.45067870140387
 21
-5.554337500715671
 31
0.0
 12
67.45067870140387
 22
-5.221004167382337
 32
0.0
 13
67.45067870140387
 23
-5.221004167382337
 33
0.0
  0
MTEXT
  5
1DD0
330
1D9E
100
AcDbEntity
  8
寸法
 62
     0
370
    13
100
AcDbMText
 10
56.45067870140387
 20
-3.221004167382337
 30
0.0
 40
2.5
 41
0.0
 71
     5
 72
     1
  1
%%c22
 73
     1
 44
1.0
  0
POINT
  5
1DD1
330
1D9E
100
AcDbEntity
  8
Defpoints
 62
     0
370
    13
100
AcDbPoint
 10
45.45067870140385
 20
15.17805371157193
 30
0.0
  0
POINT
  5
1DD2
330
1D9E
100
AcDbEntity
  8
Defpoints
 62
     0
370
    13
100
AcDbPoint
 10
67.45067870140387
 20
14.99233498434353
 30
0.0
  0
POINT
  5
1DD3
330
1D9E
100
AcDbEntity
  8
Defpoints
 62
     0
370
    13
100
AcDbPoint
 10
67.45067870140387
 20
-5.221004167382337
 30
0.0
  0
ENDBLK
  5
1DA9
330
1D9E
100
AcDbEntity
  8
0
370
    13
100
AcDbBlockEnd
  0
BLOCK
  5
1DB4
330
1DAA
100
AcDbEntity
  8
0
370
    13
100
AcDbBlockBegin
  2
*D3
 70
     1
 10
0.0
 20
0.0
 30
0.0
  3
*D3
  1

  0
LINE
  5
1DD4
330
1DAA
100
AcDbEntity
  8
寸法
 62
     0
370
    -2
100
AcDbLine
 10
50.95067870140386
 20
3.778844621853183
 30
0.0
 11
50.95067870140386
 21
-0.7210042650385855
 31
0.0
  0
LINE
  5
1DD5
330
1DAA
100
AcDbEntity
  8
寸法
 62
     0
370
    -2
100
AcDbLine
 10
61.95067870140386
 20
3.778844621853183
 30
0.0
 11
61.95067870140386
 21
-0.7210042650385855
 31
0.0
  0
LINE
  5
1DD6
330
1DAA
100
AcDbEntity
  8
寸法
 62
     0
370
    -2
100
AcDbLine
 10
52.95067870140385
 20
-0.2210042650385853
 30
0.0
 11
59.95067870140386
 21
-0.2210042650385853
 31
0.0
  0
SOLID
  5
1DD7
330
1DAA
100
AcDbEntity
  8
寸法
 62
     0
370
    13
100
AcDbTrace
 10
52.95067870140385
 20
0.112329068294748
 30
0.0
 11
52.95067870140385
 21
-0.5543375983719186
 31
0.0
 12
50.95067870140386
 22
-0.2210042650385853
 32
0.0
 13
50.95067870140386
 23
-0.2210042650385853
 33
0.0
  0
SOLID
  5
1DD8
330
1DAA
100
AcDbEntity
  8
寸法
 62
     0
370
    13
100
AcDbTrace
 10
59.95067870140386
 20
0.112329068294748
 30
0.0
 11
59.95067870140386
 21
-0.5543375983719186
 31
0.0
 12
61.95067870140386
 22
-0.2210042650385853
 32
0.0
 13
61.95067870140386
 23
-0.2210042650385853
 33
0.0
  0
MTEXT
  5
1DD9
330
1DAA
100
AcDbEntity
  8
寸法
 62
     0
370
    13
100
AcDbMText
 10
56.45067870140386
 20
1.778995734961414
 30
0.0
 40
2.5
 41
0.0
 71
     5
 72
     1
  1
%%c11
 73
     1
 44
1.0
  0
POINT
  5
1DDA
330
1DAA
100
AcDbEntity
  8
Defpoints
 62
     0
370
    13
100
AcDbPoint
 10
50.95067870140386
 20
5.778844621853183
 30
0.0
  0
POINT
  5
1DDB
330
1DAA
100
AcDbEntity
  8
Defpoints
 62
     0
370
    13
100
AcDbPoint
 10
61.95067870140386
 20
5.778844621853183
 30
0.0
  0
POINT
  5
1DDC
330
1DAA
100
AcDbEntity
  8
Defpoints
 62
     0
370
    13
100
AcDbPoint
 10
61.95067870140386
 20
-0.2210042650385853
 30
0.0
  0
ENDBLK
  5
1DB5
330
1DAA
100
AcDbEntity
  8
0
370
    13
100
AcDbBlockEnd
  0
BLOCK
  5
1DC0
330
1DB6
100
AcDbEntity
  8
0
370
    13
100
AcDbBlockBegin
  2
*D4
 70
     1
 10
0.0
 20
0.0
 30
0.0
  3
*D4
  1

  0
LINE
  5
1DEC
330
1DB6
100
AcDbEntity
  8
寸法
 62
     0
370
    -2
100
AcDbLine
 10
31.8674695083518
 20
94.78024520416045
 30
0.0
 11
27.36610445256112
 21
94.78024520416045
 31
0.0
  0
LINE
  5
1DED
330
1DB6
100
AcDbEntity
  8
寸法
 62
     0
370
    -2
100
AcDbLine
 10
31.08878049437203
 20
4.780244922761263
 30
0.0
 11
27.3661044525611
 21
4.780244922761264
 31
0.0
  0
LINE
  5
1DEE
330
1DB6
100
AcDbEntity
  8
寸法
 62
     0
370
    -2
100
AcDbLine
 10
27.86610445256112
 20
92.78024520416044
 30
0.0
 11
27.8661044525611
 21
6.780244922761264
 31
0.0
  0
SOLID
  5
1DEF
330
1DB6
100
AcDbEntity
  8
寸法
 62
     0
370
    13
100
AcDbTrace
 10
27.53277111922779
 20
92.78024520416044
 30
0.0
 11
28.19943778589445
 21
92.78024520416044
 31
0.0
 12
27.86610445256112
 22
94.78024520416045
 32
0.0
 13
27.86610445256112
 23
94.78024520416045
 33
0.0
  0
SOLID
  5
1DF0
330
1DB6
100
AcDbEntity
  8
寸法
 62
     0
370
    13
100
AcDbTrace
 10
27.53277111922777
 20
6.780244922761264
 30
0.0
 11
28.19943778589443
 21
6.780244922761264
 31
0.0
 12
27.8661044525611
 22
4.780244922761264
 32
0.0
 13
27.8661044525611
 23
4.780244922761264
 33
0.0
  0
MTEXT
  5
1DF1
330
1DB6
100
AcDbEntity
  8
寸法
 62
     0
370
    13
100
AcDbMText
 10
25.8661044525611
 20
49.78024506346086
 30
0.0
 40
2.5
 41
0.0
 71
     5
 72
     1
  1
90
 11
0.0000000000000001
 21
1.0
 31
0.0
 73
     1
 44
1.0
  0
POINT
  5
1DF2
330
1DB6
100
AcDbEntity
  8
Defpoints
 62
     0
370
    13
100
AcDbPoint
 10
33.8674695083518
 20
94.78024520416044
 30
0.0
  0
POINT
  5
1DF3
330
1DB6
100
AcDbEntity
  8
Defpoints
 62
     0
370
    13
100
AcDbPoint
 10
33.08878049437203
 20
4.780244922761263
 30
0.0
  0
POINT
  5
1DF4
330
1DB6
100
AcDbEntity
  8
Defpoints
 62
     0
370
    13
100
AcDbPoint
 10
27.8661044525611
 20
4.780244922761264
 30
0.0
  0
ENDBLK
  5
1DC1
330
1DB6
100
AcDbEntity
  8
0
370
    13
100
AcDbBlockEnd
  0
BLOCK
  5
1E00
330
1DF6
100
AcDbEntity
  8
0
370
    13
100
AcDbBlockBegin
  2
*D5
 70
     1
 10
0.0
 20
0.0
 30
0.0
  3
*D5
  1

  0
LINE
  5
1E12
330
1DF6
100
AcDbEntity
  8
寸法
 62
     0
370
    -2
100
AcDbLine
 10
70.44753848265886
 20
17.98024493242477
 30
0.0
 11
89.56610442475676
 21
17.98024493242476
 31
0.0
  0
LINE
  5
1E13
330
1DF6
100
AcDbEntity
  8
寸法
 62
     0
370
    -2
100
AcDbLine
 10
85.84342838294583
 20
4.780244922761263
 30
0.0
 11
89.56610442475676
 21
4.780244922761262
 31
0.0
  0
LINE
  5
1E14
330
1DF6
100
AcDbEntity
  8
寸法
 62
     0
370
    -2
100
AcDbLine
 10
89.06610442475676
 20
15.98024493242476
 30
0.0
 11
89.06610442475676
 21
6.780244922761262
 31
0.0
  0
SOLID
  5
1E15
330
1DF6
100
AcDbEntity
  8
寸法
 62
     0
370
    13
100
AcDbTrace
 10
88.73277109142343
 20
15.98024493242476
 30
0.0
 11
89.39943775809009
 21
15.98024493242476
 31
0.0
 12
89.06610442475676
 22
17.98024493242476
 32
0.0
 13
89.06610442475676
 23
17.98024493242476
 33
0.0
  0
SOLID
  5
1E16
330
1DF6
100
AcDbEntity
  8
寸法
 62
     0
370
    13
100
AcDbTrace
 10
88.73277109142343
 20
6.780244922761262
 30
0.0
 11
89.39943775809009
 21
6.780244922761262
 31
0.0
 12
89.06610442475676
 22
4.780244922761262
 32
0.0
 13
89.06610442475676
 23
4.780244922761262
 33
0.0
  0
MTEXT
  5
1E17
330
1DF6
100
AcDbEntity
  8
寸法
 62
     0
370
    13
100
AcDbMText
 10
87.06610442475676
 20
11.38024492759303
 30
0.0
 40
2.5
 41
0.0
 71
     5
 72
     1
  1
13.2
 11
0.0000000000000001
 21
1.0
 31
0.0
 73
     1
 44
1.0
  0
POINT
  5
1E18
330
1DF6
100
AcDbEntity
  8
Defpoints
 62
     0
370
    13
100
AcDbPoint
 10
68.44753848265885
 20
17.98024493242477
 30
0.0
  0
POINT
  5
1E19
330
1DF6
100
AcDbEntity
  8
Defpoints
 62
     0
370
    13
100
AcDbPoint
 10
83.84342838294584
 20
4.780244922761263
 30
0.0
  0
POINT
  5
1E1A
330
1DF6
100
AcDbEntity
  8
Defpoints
 62
     0
370
    13
100
AcDbPoint
 10
89.06610442475676
 20
4.780244922761262
 30
0.0
  0
ENDBLK
  5
1E01
330
1DF6
100
AcDbEntity
  8
0
370
    13
100
AcDbBlockEnd
  0
ENDSEC
  0
SECTION
  2
ENTITIES
  0
MTEXT
  5
140A
330
A
100
AcDbEntity
  8
文字
370
    13
100
AcDbMText
 10
4.096096624481788
 20
-12.39070406309713
 30
0.0
 40
5.0
 41
0.0
 71
     5
 72
     1
  1
{\fMS UI Gothic|b0|i0|c128|p17;B179050}
 73
     1
 44
1.0
  0
DIMENSION
  5
1A65
330
A
100
AcDbEntity
  8
寸法
370
    13
100
AcDbDimension
  2
*D0
 10
48.21856893415961
 20
169.9802449324247
 30
0.0
 11
56.46856893415961
 21
171.9802449324247
 31
0.0
 70
    32
  1
{\fMS UI Gothic|b0|i0|c128|p17;\U+2260}<>
 71
     5
 42
16.5
  3
ISO-25 1／10
100
AcDbAlignedDimension
 13
64.7185689341596
 23
164.7456663855671
 33
0.0
 14
48.21856893415961
 24
164.9802448609962
 34
0.0
 50
180.0
100
AcDbRotatedDimension
1001
ACAD
1000
DSTYLE
1002
{
1070
   279
1070
     1
1002
}
  0
LWPOLYLINE
  5
1C0D
102
{ACAD_REACTORS
330
1E1B
102
}
330
A
100
AcDbEntity
  8
0
 62
     4
370
    13
100
AcDbPolyline
 90
        6
 70
     0
 43
0.0
 10
48.21856893415961
 20
169.9802449324247
 10
48.21856893415949
 20
20.98024493242477
 10
49.21856893415949
 20
19.98024493242477
 10
55.21856893415949
 20
19.98024493242477
 10
56.21856893415949
 20
20.98024493242477
 10
56.2185689341596
 20
169.9802449324247
  0
LWPOLYLINE
  5
1C0E
102
{ACAD_REACTORS
330
1E1B
102
}
330
A
100
AcDbEntity
  8
0
 62
     4
370
    13
100
AcDbPolyline
 90
        6
 70
     0
 43
0.0
 10
56.7185689341596
 20
169.9802449324247
 10
56.71856893415949
 20
20.98024493242477
 10
57.71856893415949
 20
19.98024493242477
 10
63.71856893415949
 20
19.98024493242477
 10
64.71856893415949
 20
20.98024493242477
 10
64.7185689341596
 20
169.9802449324247
  0
LWPOLYLINE
  5
1C0F
102
{ACAD_REACTORS
330
1E1B
102
}
330
A
100
AcDbEntity
  8
0
 62
     4
370
    13
100
AcDbPolyline
 90
        6
 70
     0
 43
0.0
 10
48.21856893415961
 20
169.9802449324247
 10
48.21856893415949
 20
20.98024493242477
 10
49.21856893415949
 20
19.98024493242477
 10
63.71856893415949
 20
19.98024493242477
 10
64.71856893415949
 20
20.98024493242477
 10
64.7185689341596
 20
169.9802449324247
  0
SPLINE
  5
1C10
102
{ACAD_REACTORS
330
1DEA
102
}
330
A
100
AcDbEntity
  8
0
370
    13
100
AcDbSpline
210
0.0
220
0.0
230
1.0
 70
     8
 71
     3
 72
     8
 73
     4
 74
     0
 42
0.0000000001
 43
0.0000000001
 40
11.0
 40
11.0
 40
11.0
 40
11.0
 40
12.0
 40
12.0
 40
12.0
 40
12.0
 10
65.22679684883074
 20
73.23317614817438
 30
0.0
 10
64.94605516763461
 20
73.23317614817438
 30
0.0
 10
64.71856893415952
 20
73.00568991469936
 30
0.0
 10
64.71856893415952
 20
72.72494823350325
 30
0.0
  0
SPLINE
  5
1C11
102
{ACAD_REACTORS
330
1DEA
102
}
330
A
100
AcDbEntity
  8
0
370
    13
100
AcDbSpline
210
0.0
220
0.0
230
1.0
 70
    24
 71
     3
 72
     8
 73
     4
 74
     0
 42
0.0000000001
 43
0.0000000001
 40
10.0
 40
10.0
 40
10.0
 40
10.0
 40
11.0
 40
11.0
 40
11.0
 40
11.0
 10
72.81241077576341
 20
73.23317614817438
 30
0.0
 10
72.81241077576341
 20
73.23317614817438
 30
0.0
 10
65.22679684883074
 20
73.23317614817438
 30
0.0
 10
65.22679684883074
 20
73.23317614817438
 30
0.0
  0
SPLINE
  5
1C12
102
{ACAD_REACTORS
330
1DEA
102
}
330
A
100
AcDbEntity
  8
0
370
    13
100
AcDbSpline
210
0.0
220
0.0
230
1.0
 70
     8
 71
     3
 72
     8
 73
     4
 74
     0
 42
0.0000000001
 43
0.0000000001
 40
9.0
 40
9.0
 40
9.0
 40
9.0
 40
10.0
 40
10.0
 40
10.0
 40
10.0
 10
72.85613284086773
 20
73.23120372418475
 30
0.0
 10
72.84133966094522
 20
73.23251867351115
 30
0.0
 10
72.82720395568593
 20
73.23317614817438
 30
0.0
 10
72.81241077576341
 20
73.23317614817438
 30
0.0
  0
SPLINE
  5
1C13
102
{ACAD_REACTORS
330
1DEA
102
}
330
A
100
AcDbEntity
  8
0
370
    13
100
AcDbSpline
210
0.0
220
0.0
230
1.0
 70
     8
 71
     3
 72
     8
 73
     4
 74
     0
 42
0.0000000001
 43
0.0000000001
 40
8.0
 40
8.0
 40
8.0
 40
8.0
 40
9.0
 40
9.0
 40
9.0
 40
9.0
 10
73.31866626644494
 20
72.68056869373566
 30
0.0
 10
73.34299282898419
 20
72.96065290026854
 30
0.0
 10
73.13621704740064
 20
73.20720589897707
 30
0.0
 10
72.85613284086773
 20
73.23120372418475
 30
0.0
  0
SPLINE
  5
1C14
102
{ACAD_REACTORS
330
1DEA
102
}
330
A
100
AcDbEntity
  8
0
370
    13
100
AcDbSpline
210
0.0
220
0.0
230
1.0
 70
    24
 71
     3
 72
     8
 73
     4
 74
     0
 42
0.0000000001
 43
0.0000000001
 40
7.0
 40
7.0
 40
7.0
 40
7.0
 40
8.0
 40
8.0
 40
8.0
 40
8.0
 10
72.03165961318636
 20
57.97253174011069
 30
0.0
 10
72.03165961318636
 20
57.97253174011069
 30
0.0
 10
73.31866626644494
 20
72.68056869373566
 30
0.0
 10
73.31866626644494
 20
72.68056869373566
 30
0.0
  0
SPLINE
  5
1C15
102
{ACAD_REACTORS
330
1DEA
102
}
330
A
100
AcDbEntity
  8
0
370
    13
100
AcDbSpline
210
0.0
220
0.0
230
1.0
 70
     8
 71
     3
 72
     8
 73
     4
 74
     0
 42
0.0000000001
 43
0.0000000001
 40
6.0
 40
6.0
 40
6.0
 40
6.0
 40
7.0
 40
7.0
 40
7.0
 40
7.0
 10
74.18719029656222
 20
55.40344949356779
 30
0.0
 10
73.7394500509075
 20
56.4550802173926
 30
0.0
 10
72.98894272283873
 20
57.34924575937561
 30
0.0
 10
72.03165961318636
 20
57.97253174011069
 30
0.0
  0
SPLINE
  5
1C16
102
{ACAD_REACTORS
330
1DEA
102
}
330
A
100
AcDbEntity
  8
0
370
    13
100
AcDbSpline
210
0.0
220
0.0
230
1.0
 70
     8
 71
     3
 72
     8
 73
     4
 74
     0
 42
0.0000000001
 43
0.0000000001
 40
5.0
 40
5.0
 40
5.0
 40
5.0
 40
6.0
 40
6.0
 40
6.0
 40
6.0
 10
71.1460412418253
 20
47.84906561313815
 30
0.0
 10
74.07213223049824
 20
49.0949800999453
 30
0.0
 10
75.43343352070099
 20
52.47834471688967
 30
0.0
 10
74.18719029656222
 20
55.40344949356779
 30
0.0
  0
SPLINE
  5
1C17
102
{ACAD_REACTORS
330
1DEA
102
}
330
A
100
AcDbEntity
  8
0
370
    13
100
AcDbSpline
210
0.0
220
0.0
230
1.0
 70
     8
 71
     3
 72
     8
 73
     4
 74
     0
 42
0.0000000001
 43
0.0000000001
 40
3.0
 40
3.0
 40
3.0
 40
3.0
 40
4.0
 40
4.0
 40
4.0
 40
4.0
 10
69.34521813925815
 20
32.58842120507452
 30
0.0
 10
69.60853674187887
 20
32.58842120507452
 30
0.0
 10
69.82879075405849
 20
32.78960845202061
 30
0.0
 10
69.85147362993967
 20
33.05226957997817
 30
0.0
  0
SPLINE
  5
1C18
102
{ACAD_REACTORS
330
1DEA
102
}
330
A
100
AcDbEntity
  8
0
370
    13
100
AcDbSpline
210
0.0
220
0.0
230
1.0
 70
    24
 71
     3
 72
     8
 73
     4
 74
     0
 42
0.0000000001
 43
0.0000000001
 40
2.0
 40
2.0
 40
2.0
 40
2.0
 40
3.0
 40
3.0
 40
3.0
 40
3.0
 10
65.22679684883074
 20
32.58842120507452
 30
0.0
 10
65.22679684883074
 20
32.58842120507452
 30
0.0
 10
69.34521813925815
 20
32.58842120507452
 30
0.0
 10
69.34521813925815
 20
32.58842120507452
 30
0.0
  0
SPLINE
  5
1C19
102
{ACAD_REACTORS
330
1DEA
102
}
330
A
100
AcDbEntity
  8
0
370
    13
100
AcDbSpline
210
0.0
220
0.0
230
1.0
 70
     8
 71
     3
 72
     8
 73
     4
 74
     0
 42
0.0000000001
 43
0.0000000001
 40
1.0
 40
1.0
 40
1.0
 40
1.0
 40
2.0
 40
2.0
 40
2.0
 40
2.0
 10
64.71856893415952
 20
33.09664911974568
 30
0.0
 10
64.71856893415952
 20
32.8159074385496
 30
0.0
 10
64.94605516763461
 20
32.58842120507452
 30
0.0
 10
65.22679684883074
 20
32.58842120507452
 30
0.0
  0
SPLINE
  5
1C1A
102
{ACAD_REACTORS
330
1DEA
102
}
330
A
100
AcDbEntity
  8
0
370
    13
100
AcDbSpline
210
0.0
220
0.0
230
1.0
 70
    24
 71
     3
 72
     8
 73
     4
 74
     0
 42
0.0000000001
 43
0.0000000001
 40
4.0
 40
4.0
 40
4.0
 40
4.0
 40
5.0
 40
5.0
 40
5.0
 40
5.0
 10
69.85147362993967
 20
33.05226957997817
 30
0.0
 10
69.85147362993967
 20
33.05226957997817
 30
0.0
 10
71.1460412418253
 20
47.84906561313815
 30
0.0
 10
71.1460412418253
 20
47.84906561313815
 30
0.0
  0
SPLINE
  5
1C1B
102
{ACAD_REACTORS
330
1DEB
102
}
330
A
100
AcDbEntity
  8
0
370
    13
100
AcDbSpline
210
0.0
220
0.0
230
1.0
 70
     8
 71
     3
 72
     8
 73
     4
 74
     0
 42
0.0000000001
 43
0.0000000001
 40
1.0
 40
1.0
 40
1.0
 40
1.0
 40
2.0
 40
2.0
 40
2.0
 40
2.0
 10
71.27622122514345
 20
47.74594844788762
 30
0.0
 10
71.53953982776418
 20
47.74594844788762
 30
0.0
 10
71.75946510261218
 20
47.94713569483383
 30
0.0
 10
71.78247671582496
 20
48.20979682279127
 30
0.0
  0
SPLINE
  5
1C1C
102
{ACAD_REACTORS
330
1DEB
102
}
330
A
100
AcDbEntity
  8
0
370
    13
100
AcDbSpline
210
0.0
220
0.0
230
1.0
 70
    24
 71
     3
 72
     8
 73
     4
 74
     0
 42
0.0000000001
 43
0.0000000001
 40
2.0
 40
2.0
 40
2.0
 40
2.0
 40
3.0
 40
3.0
 40
3.0
 40
3.0
 10
71.78247671582496
 20
48.20979682279127
 30
0.0
 10
71.78247671582496
 20
48.20979682279127
 30
0.0
 10
73.07507190372094
 20
62.9868686160546
 30
0.0
 10
73.07507190372094
 20
62.9868686160546
 30
0.0
  0
SPLINE
  5
1C1D
102
{ACAD_REACTORS
330
1DEB
102
}
330
A
100
AcDbEntity
  8
0
370
    13
100
AcDbSpline
210
0.0
220
0.0
230
1.0
 70
     8
 71
     3
 72
     8
 73
     4
 74
     0
 42
0.0000000001
 43
0.0000000001
 40
3.0
 40
3.0
 40
3.0
 40
3.0
 40
4.0
 40
4.0
 40
4.0
 40
4.0
 10
73.07507190372094
 20
62.9868686160546
 30
0.0
 10
76.01299743633187
 20
64.25053491876878
 30
0.0
 10
77.37035387855527
 20
67.6565824115944
 30
0.0
 10
76.10734505050434
 20
70.59483668153688
 30
0.0
  0
SPLINE
  5
1C1E
102
{ACAD_REACTORS
330
1DEB
102
}
330
A
100
AcDbEntity
  8
0
370
    13
100
AcDbSpline
210
0.0
220
0.0
230
1.0
 70
     8
 71
     3
 72
     8
 73
     4
 74
     0
 42
0.0000000001
 43
0.0000000001
 40
4.0
 40
4.0
 40
4.0
 40
4.0
 40
5.0
 40
5.0
 40
5.0
 40
5.0
 10
76.10734505050434
 20
70.59483668153688
 30
0.0
 10
75.65894733018642
 20
71.63759149740815
 30
0.0
 10
74.91369979942341
 20
72.52616850475374
 30
0.0
 10
73.96364891106651
 20
73.1491257481573
 30
0.0
  0
SPLINE
  5
1C1F
102
{ACAD_REACTORS
330
1DEB
102
}
330
A
100
AcDbEntity
  8
0
370
    13
100
AcDbSpline
210
0.0
220
0.0
230
1.0
 70
     8
 71
     3
 72
     8
 73
     4
 74
     0
 42
0.0000000001
 43
0.0000000001
 40
6.0
 40
6.0
 40
6.0
 40
6.0
 40
7.0
 40
7.0
 40
7.0
 40
7.0
 10
75.24901187766703
 20
87.83809593654883
 30
0.0
 10
75.27399591486947
 20
88.11752266841848
 30
0.0
 10
75.06656265862268
 20
88.36407566712694
 30
0.0
 10
74.78713592675302
 20
88.38807349233462
 30
0.0
  0
SPLINE
  5
1C20
102
{ACAD_REACTORS
330
1DEB
102
}
330
A
100
AcDbEntity
  8
0
370
    13
100
AcDbSpline
210
0.0
220
0.0
230
1.0
 70
     8
 71
     3
 72
     8
 73
     4
 74
     0
 42
0.0000000001
 43
0.0000000001
 40
7.0
 40
7.0
 40
7.0
 40
7.0
 40
8.0
 40
8.0
 40
8.0
 40
8.0
 10
74.78713592675302
 20
88.38807349233462
 30
0.0
 10
74.77300022149375
 20
88.38971717899273
 30
0.0
 10
74.75754956690799
 20
88.39037465365596
 30
0.0
 10
74.74275638698549
 20
88.39037465365596
 30
0.0
  0
SPLINE
  5
1C21
102
{ACAD_REACTORS
330
1DEB
102
}
330
A
100
AcDbEntity
  8
0
370
    13
100
AcDbSpline
210
0.0
220
0.0
230
1.0
 70
    24
 71
     3
 72
     8
 73
     4
 74
     0
 42
0.0000000001
 43
0.0000000001
 40
8.0
 40
8.0
 40
8.0
 40
8.0
 40
9.0
 40
9.0
 40
9.0
 40
9.0
 10
74.74275638698549
 20
88.39037465365596
 30
0.0
 10
74.74275638698549
 20
88.39037465365596
 30
0.0
 10
65.22679684883077
 20
88.39037465365596
 30
0.0
 10
65.22679684883077
 20
88.39037465365596
 30
0.0
  0
SPLINE
  5
1C22
102
{ACAD_REACTORS
330
1DEB
102
}
330
A
100
AcDbEntity
  8
0
370
    13
100
AcDbSpline
210
0.0
220
0.0
230
1.0
 70
     8
 71
     3
 72
     8
 73
     4
 74
     0
 42
0.0000000001
 43
0.0000000001
 40
9.0
 40
9.0
 40
9.0
 40
9.0
 40
10.0
 40
10.0
 40
10.0
 40
10.0
 10
65.22679684883077
 20
88.39037465365596
 30
0.0
 10
64.94605516763463
 20
88.39037465365596
 30
0.0
 10
64.71856893415955
 20
88.16255968284929
 30
0.0
 10
64.71856893415955
 20
87.88313295097953
 30
0.0
  0
SPLINE
  5
1C23
102
{ACAD_REACTORS
330
1DEB
102
}
330
A
100
AcDbEntity
  8
0
370
    13
100
AcDbSpline
210
0.0
220
0.0
230
1.0
 70
     8
 71
     3
 72
     8
 73
     4
 74
     0
 42
0.0000000001
 43
0.0000000001
 40
1.0
 40
1.0
 40
1.0
 40
1.0
 40
2.0
 40
2.0
 40
2.0
 40
2.0
 10
64.71856893415955
 20
48.25417636255878
 30
0.0
 10
64.71856893415955
 20
47.9734346813627
 30
0.0
 10
64.94605516763463
 20
47.74594844788762
 30
0.0
 10
65.22679684883077
 20
47.74594844788762
 30
0.0
  0
SPLINE
  5
1C24
102
{ACAD_REACTORS
330
1DEB
102
}
330
A
100
AcDbEntity
  8
0
370
    13
100
AcDbSpline
210
0.0
220
0.0
230
1.0
 70
    24
 71
     3
 72
     8
 73
     4
 74
     0
 42
0.0000000001
 43
0.0000000001
 40
0.4873244746375108
 40
0.4873244746375108
 40
0.4873244746375108
 40
0.4873244746375108
 40
1.0
 40
1.0
 40
1.0
 40
1.0
 10
65.22679684883417
 20
47.74594844788762
 30
0.0
 10
68.21267700452121
 20
47.74594844788762
 30
0.0
 10
71.27622122514345
 20
47.74594844788762
 30
0.0
 10
71.27622122514345
 20
47.74594844788762
 30
0.0
  0
SPLINE
  5
1C25
102
{ACAD_REACTORS
330
1DEB
102
}
330
A
100
AcDbEntity
  8
0
370
    13
100
AcDbSpline
210
0.0
220
0.0
230
1.0
 70
    24
 71
     3
 72
     8
 73
     4
 74
     0
 42
0.0000000001
 43
0.0000000001
 40
5.0
 40
5.0
 40
5.0
 40
5.0
 40
6.0
 40
6.0
 40
6.0
 40
6.0
 10
73.96364891106651
 20
73.1491257481573
 30
0.0
 10
73.96364891106651
 20
73.1491257481573
 30
0.0
 10
75.24901187766703
 20
87.83809593654883
 30
0.0
 10
75.24901187766703
 20
87.83809593654883
 30
0.0
  0
SPLINE
  5
1C26
102
{ACAD_REACTORS
330
1DE9
102
}
330
A
100
AcDbEntity
  8
0
370
    13
100
AcDbSpline
210
0.0
220
0.0
230
1.0
 70
     8
 71
     3
 72
     8
 73
     4
 74
     0
 42
0.0000000001
 43
0.0000000001
 40
0.0
 40
0.0
 40
0.0
 40
0.0
 40
1.0
 40
1.0
 40
1.0
 40
1.0
 10
80.59600660375661
 20
87.81824599529457
 30
0.0
 10
81.19989708192671
 20
87.81824599529457
 30
0.0
 10
81.71502848056174
 20
88.27124603825504
 30
0.0
 10
81.81332094271356
 20
88.88927222168447
 30
0.0
  0
SPLINE
  5
1C27
102
{ACAD_REACTORS
330
1DE9
102
}
330
A
100
AcDbEntity
  8
0
370
    13
100
AcDbSpline
210
0.0
220
0.0
230
1.0
 70
     8
 71
     3
 72
     8
 73
     4
 74
     0
 42
0.0000000001
 43
0.0000000001
 40
0.0
 40
0.0
 40
0.0
 40
0.0
 40
1.0
 40
1.0
 40
1.0
 40
1.0
 10
79.34055873433273
 20
88.88927222168447
 30
0.0
 10
79.4381937218213
 20
88.27124603825504
 30
0.0
 10
79.94707911115573
 20
87.81824599529457
 30
0.0
 10
80.5443948426936
 20
87.81824599529457
 30
0.0
  0
SPLINE
  5
1C28
102
{ACAD_REACTORS
330
1DE9
102
}
330
A
100
AcDbEntity
  8
0
370
    13
100
AcDbSpline
210
0.0
220
0.0
230
1.0
 70
     8
 71
     3
 72
     8
 73
     4
 74
     0
 42
0.0000000001
 43
0.0000000001
 40
0.0
 40
0.0
 40
0.0
 40
0.0
 40
1.0
 40
1.0
 40
1.0
 40
1.0
 10
83.9287456716328
 20
94.78024520416042
 30
0.0
 10
84.02572318445818
 20
94.78024520416042
 30
0.0
 10
84.1049488813765
 20
94.87130544501686
 30
0.0
 10
84.1049488813765
 20
94.98373361242787
 30
0.0
  0
SPLINE
  5
1C29
102
{ACAD_REACTORS
330
1DE9
102
}
330
A
100
AcDbEntity
  8
0
370
    13
100
AcDbSpline
210
0.0
220
0.0
230
1.0
 70
     8
 71
     3
 72
     8
 73
     4
 74
     0
 42
0.0000000001
 43
0.0000000001
 40
0.0
 40
0.0
 40
0.0
 40
0.0
 40
1.0
 40
1.0
 40
1.0
 40
1.0
 10
65.62169241152645
 20
105.0118659132331
 30
0.0
 10
65.37546815014952
 20
105.1377723112403
 30
0.0
 10
65.07960455169926
 20
105.0345487891143
 30
0.0
 10
64.95172572970244
 20
104.7781336704574
 30
0.0
  0
SPLINE
  5
1C2A
102
{ACAD_REACTORS
330
1DE9
102
}
330
A
100
AcDbEntity
  8
0
370
    13
100
AcDbSpline
210
0.0
220
0.0
230
1.0
 70
     8
 71
     3
 72
     8
 73
     4
 74
     0
 42
0.0000000001
 43
0.0000000001
 40
1.0
 40
1.0
 40
1.0
 40
1.0
 40
2.0
 40
2.0
 40
2.0
 40
2.0
 10
64.95172572970244
 20
104.7781336704574
 30
0.0
 10
64.82450438236883
 20
104.5217185518005
 30
0.0
 10
64.91063356325103
 20
104.2044870267955
 30
0.0
 10
65.14765317934283
 20
104.0598426008865
 30
0.0
  0
SPLINE
  5
1C2B
102
{ACAD_REACTORS
330
1DE9
102
}
330
A
100
AcDbEntity
  8
0
370
    13
100
AcDbSpline
210
0.0
220
0.0
230
1.0
 70
     8
 71
     3
 72
     8
 73
     4
 74
     0
 42
0.0000000001
 43
0.0000000001
 40
0.0
 40
0.0
 40
0.0
 40
0.0
 40
1.0
 40
1.0
 40
1.0
 40
1.0
 10
84.10494888137652
 20
95.67835559412273
 30
0.0
 10
84.1010040333972
 20
95.75330770573007
 30
0.0
 10
84.06024060427737
 20
95.82267128270009
 30
0.0
 10
83.99482187528672
 20
95.85751743985097
 30
0.0
  0
SPLINE
  5
1C2C
102
{ACAD_REACTORS
330
1DE9
102
}
330
A
100
AcDbEntity
  8
0
370
    13
100
AcDbSpline
210
0.0
220
0.0
230
1.0
 70
     8
 71
     3
 72
     8
 73
     4
 74
     0
 42
0.0000000001
 43
0.0000000001
 40
0.0
 40
0.0
 40
0.0
 40
0.0
 40
1.0
 40
1.0
 40
1.0
 40
1.0
 10
81.97933329517729
 20
94.78024520416042
 30
0.0
 10
81.88235578235193
 20
94.78024520416042
 30
0.0
 10
81.80313008543361
 20
94.68984243796731
 30
0.0
 10
81.80313008543361
 20
94.57807174521937
 30
0.0
  0
SPLINE
  5
1C2D
102
{ACAD_REACTORS
330
1DE9
102
}
330
A
100
AcDbEntity
  8
0
370
    13
100
AcDbSpline
210
0.0
220
0.0
230
1.0
 70
     8
 71
     3
 72
     8
 73
     4
 74
     0
 42
0.0000000001
 43
0.0000000001
 40
0.0
 40
0.0
 40
0.0
 40
0.0
 40
1.0
 40
1.0
 40
1.0
 40
1.0
 10
77.46807089347427
 20
96.61032592924104
 30
0.0
 10
77.46807089347427
 20
96.67870329421621
 30
0.0
 10
77.4430868562718
 20
96.74280707388048
 30
0.0
 10
77.37931181393921
 20
96.77798196836286
 30
0.0
  0
SPLINE
  5
1C2E
102
{ACAD_REACTORS
330
1DE9
102
}
330
A
100
AcDbEntity
  8
0
370
    13
100
AcDbSpline
210
0.0
220
0.0
230
1.0
 70
     8
 71
     3
 72
     8
 73
     4
 74
     0
 42
0.0000000001
 43
0.0000000001
 40
0.0
 40
0.0
 40
0.0
 40
0.0
 40
1.0
 40
1.0
 40
1.0
 40
1.0
 10
77.46807089347427
 20
94.98373361242787
 30
0.0
 10
77.46807089347427
 20
94.87196291968004
 30
0.0
 10
77.54696785306101
 20
94.78024520416042
 30
0.0
 10
77.64460284054959
 20
94.78024520416042
 30
0.0
  0
SPLINE
  5
1C2F
102
{ACAD_REACTORS
330
1DE9
102
}
330
A
100
AcDbEntity
  8
0
370
    13
100
AcDbSpline
210
0.0
220
0.0
230
1.0
 70
     8
 71
     3
 72
     8
 73
     4
 74
     0
 42
0.0000000001
 43
0.0000000001
 40
0.0
 40
0.0
 40
0.0
 40
0.0
 40
1.0
 40
1.0
 40
1.0
 40
1.0
 10
79.32445060508378
 20
94.57675679589303
 30
0.0
 10
79.32445060508378
 20
94.68852748864085
 30
0.0
 10
79.24588238282864
 20
94.78024520416042
 30
0.0
 10
79.14824739534006
 20
94.78024520416042
 30
0.0
  0
SPLINE
  5
1C30
102
{ACAD_REACTORS
330
1DE9
102
}
330
A
100
AcDbEntity
  8
0
370
    13
100
AcDbSpline
210
0.0
220
0.0
230
1.0
 70
     8
 71
     3
 72
     8
 73
     4
 74
     0
 42
0.0000000001
 43
0.0000000001
 40
0.0
 40
0.0
 40
0.0
 40
0.0
 40
1.0
 40
1.0
 40
1.0
 40
1.0
 10
78.89347596334125
 20
92.92353675521937
 30
0.0
 10
78.79715592517912
 20
92.95246564040125
 30
0.0
 10
78.69820598836408
 20
92.88836186073703
 30
0.0
 10
78.67322195116162
 20
92.78086475330004
 30
0.0
  0
SPLINE
  5
1C31
102
{ACAD_REACTORS
330
1DE9
102
}
330
A
100
AcDbEntity
  8
0
370
    13
100
AcDbSpline
210
0.0
220
0.0
230
1.0
 70
     8
 71
     3
 72
     8
 73
     4
 74
     0
 42
0.0000000001
 43
0.0000000001
 40
0.0
 40
0.0
 40
0.0
 40
0.0
 40
1.0
 40
1.0
 40
1.0
 40
1.0
 10
78.62128145276702
 20
92.58164993034355
 30
0.0
 10
78.59695489022776
 20
92.47316661091176
 30
0.0
 10
78.65086781261203
 20
92.3620533928271
 30
0.0
 10
78.74127057880517
 20
92.33312450764534
 30
0.0
  0
SPLINE
  5
1C32
102
{ACAD_REACTORS
330
1DE9
102
}
330
A
100
AcDbEntity
  8
0
370
    13
100
AcDbSpline
210
0.0
220
0.0
230
1.0
 70
     8
 71
     3
 72
     8
 73
     4
 74
     0
 42
0.0000000001
 43
0.0000000001
 40
0.0
 40
0.0
 40
0.0
 40
0.0
 40
1.0
 40
1.0
 40
1.0
 40
1.0
 10
78.64297811665338
 20
89.3054536835045
 30
0.0
 10
78.61865155411412
 20
89.19697036407271
 30
0.0
 10
78.6725644764984
 20
89.0861858833197
 30
0.0
 10
78.76296724269153
 20
89.05692826080629
 30
0.0
  0
SPLINE
  5
1C33
102
{ACAD_REACTORS
330
1DE9
102
}
330
A
100
AcDbEntity
  8
0
370
    13
100
AcDbSpline
210
0.0
220
0.0
230
1.0
 70
     8
 71
     3
 72
     8
 73
     4
 74
     0
 42
0.0000000001
 43
0.0000000001
 40
0.0
 40
0.0
 40
0.0
 40
0.0
 40
1.0
 40
1.0
 40
1.0
 40
1.0
 10
78.89347596334125
 20
89.65358651768097
 30
0.0
 10
78.79715592517912
 20
89.68251540286278
 30
0.0
 10
78.69820598836408
 20
89.61841162319851
 30
0.0
 10
78.67322195116162
 20
89.50992830376671
 30
0.0
  0
SPLINE
  5
1C34
102
{ACAD_REACTORS
330
1DE9
102
}
330
A
100
AcDbEntity
  8
0
370
    13
100
AcDbSpline
210
0.0
220
0.0
230
1.0
 70
     8
 71
     3
 72
     8
 73
     4
 74
     0
 42
0.0000000001
 43
0.0000000001
 40
0.0
 40
0.0
 40
0.0
 40
0.0
 40
1.0
 40
1.0
 40
1.0
 40
1.0
 10
82.46257717264603
 20
89.50992830376671
 30
0.0
 10
82.43562071145388
 20
89.61775414853528
 30
0.0
 10
82.33075350266986
 20
89.68251540286278
 30
0.0
 10
82.22851619253873
 20
89.6535865176809
 30
0.0
  0
SPLINE
  5
1C35
102
{ACAD_REACTORS
330
1DE9
102
}
330
A
100
AcDbEntity
  8
0
370
    13
100
AcDbSpline
210
0.0
220
0.0
230
1.0
 70
     8
 71
     3
 72
     8
 73
     4
 74
     0
 42
0.0000000001
 43
0.0000000001
 40
0.0
 40
0.0
 40
0.0
 40
0.0
 40
1.0
 40
1.0
 40
1.0
 40
1.0
 10
82.39156990901799
 20
89.05692826080629
 30
0.0
 10
82.49413595648075
 20
89.0861858833197
 30
0.0
 10
82.55462362549723
 20
89.19697036407271
 30
0.0
 10
82.52700968964187
 20
89.30479620884133
 30
0.0
  0
SPLINE
  5
1C36
102
{ACAD_REACTORS
330
1DE9
102
}
330
A
100
AcDbEntity
  8
0
370
    13
100
AcDbSpline
210
0.0
220
0.0
230
1.0
 70
     8
 71
     3
 72
     8
 73
     4
 74
     0
 42
0.0000000001
 43
0.0000000001
 40
0.0
 40
0.0
 40
0.0
 40
0.0
 40
1.0
 40
1.0
 40
1.0
 40
1.0
 10
82.46257717264603
 20
92.77922106664195
 30
0.0
 10
82.43562071145388
 20
92.88770438607375
 30
0.0
 10
82.33075350266986
 20
92.95246564040118
 30
0.0
 10
82.22851619253873
 20
92.92353675521937
 30
0.0
  0
SPLINE
  5
1C37
102
{ACAD_REACTORS
330
1DE9
102
}
330
A
100
AcDbEntity
  8
0
370
    13
100
AcDbSpline
210
0.0
220
0.0
230
1.0
 70
     8
 71
     3
 72
     8
 73
     4
 74
     0
 42
0.0000000001
 43
0.0000000001
 40
0.0
 40
0.0
 40
0.0
 40
0.0
 40
1.0
 40
1.0
 40
1.0
 40
1.0
 10
81.94448713802648
 20
92.20458821098523
 30
0.0
 10
81.86098785579721
 20
92.18091912310919
 30
0.0
 10
81.80313008543361
 20
92.10004973953287
 30
0.0
 10
81.80313008543361
 20
92.00866076134488
 30
0.0
  0
SPLINE
  5
1C38
102
{ACAD_REACTORS
330
1DE9
102
}
330
A
100
AcDbEntity
  8
0
370
    13
100
AcDbSpline
210
0.0
220
0.0
230
1.0
 70
     8
 71
     3
 72
     8
 73
     4
 74
     0
 42
0.0000000001
 43
0.0000000001
 40
0.0
 40
0.0
 40
0.0
 40
0.0
 40
1.0
 40
1.0
 40
1.0
 40
1.0
 10
82.375461779769
 20
92.32917965966597
 30
0.0
 10
82.47802782723177
 20
92.35810854484773
 30
0.0
 10
82.53851549624824
 20
92.46922176293239
 30
0.0
 10
82.51090156039289
 20
92.57770508236419
 30
0.0
  0
SPLINE
  5
1C39
102
{ACAD_REACTORS
330
1DE8
102
}
330
A
100
AcDbEntity
  8
0
370
    13
100
AcDbSpline
210
0.0
220
0.0
230
1.0
 70
     8
 71
     3
 72
     8
 73
     4
 74
     0
 42
0.0000000001
 43
0.0000000001
 40
0.0
 40
0.0
 40
0.0
 40
0.0
 40
1.0
 40
1.0
 40
1.0
 40
1.0
 10
36.47388578897457
 20
87.81791725796294
 30
0.0
 10
37.06429803654862
 20
87.81791725796294
 30
0.0
 10
37.56792362857723
 20
88.27124603825504
 30
0.0
 10
37.66424366673939
 20
88.88927222168447
 30
0.0
  0
SPLINE
  5
1C3A
102
{ACAD_REACTORS
330
1DE8
102
}
330
A
100
AcDbEntity
  8
0
370
    13
100
AcDbSpline
210
0.0
220
0.0
230
1.0
 70
     8
 71
     3
 72
     8
 73
     4
 74
     0
 42
0.0000000001
 43
0.0000000001
 40
0.0
 40
0.0
 40
0.0
 40
0.0
 40
1.0
 40
1.0
 40
1.0
 40
1.0
 10
35.22139655553519
 20
88.8899296963477
 30
0.0
 10
35.31771659369733
 20
88.27190351291827
 30
0.0
 10
35.82134218572596
 20
87.81857473262622
 30
0.0
 10
36.41175443330002
 20
87.81791725796294
 30
0.0
  0
SPLINE
  5
1C3B
102
{ACAD_REACTORS
330
1DE8
102
}
330
A
100
AcDbEntity
  8
0
370
    13
100
AcDbSpline
210
0.0
220
0.0
230
1.0
 70
     8
 71
     3
 72
     8
 73
     4
 74
     0
 42
0.0000000001
 43
0.0000000001
 40
0.0
 40
0.0
 40
0.0
 40
0.0
 40
1.0
 40
1.0
 40
1.0
 40
1.0
 10
35.21712297022423
 20
94.57149699858721
 30
0.0
 10
35.21712297022423
 20
94.68392516599838
 30
0.0
 10
35.13000757734721
 20
94.77465666952307
 30
0.0
 10
35.02251046991029
 20
94.77465666952307
 30
0.0
  0
SPLINE
  5
1C3C
102
{ACAD_REACTORS
330
1DE8
102
}
330
A
100
AcDbEntity
  8
0
370
    13
100
AcDbSpline
210
0.0
220
0.0
230
1.0
 70
     8
 71
     3
 72
     8
 73
     4
 74
     0
 42
0.0000000001
 43
0.0000000001
 40
1.0
 40
1.0
 40
1.0
 40
1.0
 40
2.0
 40
2.0
 40
2.0
 40
2.0
 10
47.83143185881627
 20
108.5806383852062
 30
0.0
 10
47.56877073085877
 20
108.7828118441471
 30
0.0
 10
47.20321481810691
 20
108.7275839724365
 30
0.0
 10
47.00334252048719
 20
108.4560469365255
 30
0.0
  0
SPLINE
  5
1C3D
102
{ACAD_REACTORS
330
1DE8
102
}
330
A
100
AcDbEntity
  8
0
370
    13
100
AcDbSpline
210
0.0
220
0.0
230
1.0
 70
     8
 71
     3
 72
     8
 73
     4
 74
     0
 42
0.0000000001
 43
0.0000000001
 40
0.0
 40
0.0
 40
0.0
 40
0.0
 40
1.0
 40
1.0
 40
1.0
 40
1.0
 10
47.99645799928518
 20
107.7019234978091
 30
0.0
 10
48.16082666509086
 20
107.9921985616218
 30
0.0
 10
48.094750461437
 20
108.37945113826
 30
0.0
 10
47.83143185881627
 20
108.5806383852062
 30
0.0
  0
SPLINE
  5
1C3E
102
{ACAD_REACTORS
330
1DE8
102
}
330
A
100
AcDbEntity
  8
0
370
    13
100
AcDbSpline
210
0.0
220
0.0
230
1.0
 70
     8
 71
     3
 72
     8
 73
     4
 74
     0
 42
0.0000000001
 43
0.0000000001
 40
0.0
 40
0.0
 40
0.0
 40
0.0
 40
1.0
 40
1.0
 40
1.0
 40
1.0
 10
39.57387882606994
 20
96.776995756368
 30
0.0
 10
39.53443034627656
 20
96.73984843789586
 30
0.0
 10
39.51010378373732
 20
96.67541592090012
 30
0.0
 10
39.51010378373732
 20
96.6067098185932
 30
0.0
  0
SPLINE
  5
1C3F
102
{ACAD_REACTORS
330
1DE8
102
}
330
A
100
AcDbEntity
  8
0
370
    13
100
AcDbSpline
210
0.0
220
0.0
230
1.0
 70
     8
 71
     3
 72
     8
 73
     4
 74
     0
 42
0.0000000001
 43
0.0000000001
 40
0.0
 40
0.0
 40
0.0
 40
0.0
 40
1.0
 40
1.0
 40
1.0
 40
1.0
 10
39.57387882606994
 20
96.776995756368
 30
0.0
 10
42.70345822301028
 20
100.1554293133382
 30
0.0
 10
45.51153250963473
 20
103.8126321275148
 30
0.0
 10
47.99645799928518
 20
107.7019234978091
 30
0.0
  0
SPLINE
  5
1C40
102
{ACAD_REACTORS
330
1DE8
102
}
330
A
100
AcDbEntity
  8
0
370
    13
100
AcDbSpline
210
0.0
220
0.0
230
1.0
 70
     8
 71
     3
 72
     8
 73
     4
 74
     0
 42
0.0000000001
 43
0.0000000001
 40
0.0
 40
0.0
 40
0.0
 40
0.0
 40
1.0
 40
1.0
 40
1.0
 40
1.0
 10
39.31549128342337
 20
94.78024520416042
 30
0.0
 10
39.42233091619707
 20
94.78024520416042
 30
0.0
 10
39.51010378373729
 20
94.87097670768523
 30
0.0
 10
39.51010378373729
 20
94.98340487509628
 30
0.0
  0
SPLINE
  5
1C41
102
{ACAD_REACTORS
330
1DE8
102
}
330
A
100
AcDbEntity
  8
0
370
    13
100
AcDbSpline
210
0.0
220
0.0
230
1.0
 70
     8
 71
     3
 72
     8
 73
     4
 74
     0
 42
0.0000000001
 43
0.0000000001
 40
0.0
 40
0.0
 40
0.0
 40
0.0
 40
1.0
 40
1.0
 40
1.0
 40
1.0
 10
37.86214354036946
 20
94.78024520416042
 30
0.0
 10
37.75497517026414
 20
94.78024520416042
 30
0.0
 10
37.6675310400555
 20
94.68951370063573
 30
0.0
 10
37.6675310400555
 20
94.57774300788784
 30
0.0
  0
SPLINE
  5
1C42
102
{ACAD_REACTORS
330
1DE8
102
}
330
A
100
AcDbEntity
  8
0
370
    13
100
AcDbSpline
210
0.0
220
0.0
230
1.0
 70
     8
 71
     3
 72
     8
 73
     4
 74
     0
 42
0.0000000001
 43
0.0000000001
 40
0.0
 40
0.0
 40
0.0
 40
0.0
 40
1.0
 40
1.0
 40
1.0
 40
1.0
 10
38.26418929693017
 20
92.33345324497699
 30
0.0
 10
38.35985186042907
 20
92.3623821301587
 30
0.0
 10
38.41639468146621
 20
92.47349534824341
 30
0.0
 10
38.39108190693215
 20
92.5819786676752
 30
0.0
  0
SPLINE
  5
1C43
102
{ACAD_REACTORS
330
1DE8
102
}
330
A
100
AcDbEntity
  8
0
370
    13
100
AcDbSpline
210
0.0
220
0.0
230
1.0
 70
     8
 71
     3
 72
     8
 73
     4
 74
     0
 42
0.0000000001
 43
0.0000000001
 40
0.0
 40
0.0
 40
0.0
 40
0.0
 40
1.0
 40
1.0
 40
1.0
 40
1.0
 10
38.33289539923692
 20
92.77922106664195
 30
0.0
 10
38.30725388737124
 20
92.88770438607375
 30
0.0
 10
38.20896142521945
 20
92.95213690306955
 30
0.0
 10
38.11395633638375
 20
92.92320801788774
 30
0.0
  0
SPLINE
  5
1C44
102
{ACAD_REACTORS
330
1DE8
102
}
330
A
100
AcDbEntity
  8
0
370
    13
100
AcDbSpline
210
0.0
220
0.0
230
1.0
 70
     8
 71
     3
 72
     8
 73
     4
 74
     0
 42
0.0000000001
 43
0.0000000001
 40
0.0
 40
0.0
 40
0.0
 40
0.0
 40
1.0
 40
1.0
 40
1.0
 40
1.0
 10
38.26418929693017
 20
89.05824321013275
 30
0.0
 10
38.35985186042907
 20
89.08717209531458
 30
0.0
 10
38.41639468146621
 20
89.19828531339916
 30
0.0
 10
38.39108190693215
 20
89.30676863283096
 30
0.0
  0
SPLINE
  5
1C45
102
{ACAD_REACTORS
330
1DE8
102
}
330
A
100
AcDbEntity
  8
0
370
    13
100
AcDbSpline
210
0.0
220
0.0
230
1.0
 70
     8
 71
     3
 72
     8
 73
     4
 74
     0
 42
0.0000000001
 43
0.0000000001
 40
0.0
 40
0.0
 40
0.0
 40
0.0
 40
1.0
 40
1.0
 40
1.0
 40
1.0
 10
38.33289539923692
 20
89.50992830376671
 30
0.0
 10
38.30725388737124
 20
89.61841162319851
 30
0.0
 10
38.20896142521945
 20
89.68218666553108
 30
0.0
 10
38.11395633638375
 20
89.65325778034932
 30
0.0
  0
SPLINE
  5
1C46
102
{ACAD_REACTORS
330
1DE8
102
}
330
A
100
AcDbEntity
  8
0
370
    13
100
AcDbSpline
210
0.0
220
0.0
230
1.0
 70
     8
 71
     3
 72
     8
 73
     4
 74
     0
 42
0.0000000001
 43
0.0000000001
 40
0.0
 40
0.0
 40
0.0
 40
0.0
 40
1.0
 40
1.0
 40
1.0
 40
1.0
 10
34.77595747120176
 20
89.65325778034932
 30
0.0
 10
34.68325354368733
 20
89.68218666553113
 30
0.0
 10
34.58693350552519
 20
89.61841162319851
 30
0.0
 10
34.56194946832275
 20
89.50992830376671
 30
0.0
  0
SPLINE
  5
1C47
102
{ACAD_REACTORS
330
1DE8
102
}
330
A
100
AcDbEntity
  8
0
370
    13
100
AcDbSpline
210
0.0
220
0.0
230
1.0
 70
     8
 71
     3
 72
     8
 73
     4
 74
     0
 42
0.0000000001
 43
0.0000000001
 40
0.0
 40
0.0
 40
0.0
 40
0.0
 40
1.0
 40
1.0
 40
1.0
 40
1.0
 10
34.50606412194884
 20
89.30676863283096
 30
0.0
 10
34.48338124606766
 20
89.19828531339916
 30
0.0
 10
34.53433553246742
 20
89.08717209531458
 30
0.0
 10
34.62046471334957
 20
89.05824321013275
 30
0.0
  0
SPLINE
  5
1C48
102
{ACAD_REACTORS
330
1DE8
102
}
330
A
100
AcDbEntity
  8
0
370
    13
100
AcDbSpline
210
0.0
220
0.0
230
1.0
 70
     8
 71
     3
 72
     8
 73
     4
 74
     0
 42
0.0000000001
 43
0.0000000001
 40
0.0
 40
0.0
 40
0.0
 40
0.0
 40
1.0
 40
1.0
 40
1.0
 40
1.0
 10
35.21712297022423
 20
92.00833202401325
 30
0.0
 10
35.21712297022423
 20
92.10004973953274
 30
0.0
 10
35.16814110781416
 20
92.18091912310919
 30
0.0
 10
35.09746258151767
 20
92.20425947365365
 30
0.0
  0
SPLINE
  5
1C49
102
{ACAD_REACTORS
330
1DE8
102
}
330
A
100
AcDbEntity
  8
0
370
    13
100
AcDbSpline
210
0.0
220
0.0
230
1.0
 70
     8
 71
     3
 72
     8
 73
     4
 74
     0
 42
0.0000000001
 43
0.0000000001
 40
0.0
 40
0.0
 40
0.0
 40
0.0
 40
1.0
 40
1.0
 40
1.0
 40
1.0
 10
34.53137689648292
 20
92.57737634503255
 30
0.0
 10
34.50869402060175
 20
92.46889302560076
 30
0.0
 10
34.55964830700151
 20
92.3577798075161
 30
0.0
 10
34.64577748788366
 20
92.32885092233434
 30
0.0
  0
SPLINE
  5
1C4A
102
{ACAD_REACTORS
330
1DE8
102
}
330
A
100
AcDbEntity
  8
0
370
    13
100
AcDbSpline
210
0.0
220
0.0
230
1.0
 70
     8
 71
     3
 72
     8
 73
     4
 74
     0
 42
0.0000000001
 43
0.0000000001
 40
0.0
 40
0.0
 40
0.0
 40
0.0
 40
1.0
 40
1.0
 40
1.0
 40
1.0
 10
34.77595747120176
 20
92.92320801788774
 30
0.0
 10
34.68325354368733
 20
92.95147942840632
 30
0.0
 10
34.58693350552519
 20
92.88836186073698
 30
0.0
 10
34.56194946832275
 20
92.77987854130518
 30
0.0
  0
SPLINE
  5
1C4B
102
{ACAD_REACTORS
330
1DE8
102
}
330
A
100
AcDbEntity
  8
0
370
    13
100
AcDbSpline
210
0.0
220
0.0
230
1.0
 70
     8
 71
     3
 72
     8
 73
     4
 74
     0
 42
0.0000000001
 43
0.0000000001
 40
0.0
 40
0.0
 40
0.0
 40
0.0
 40
1.0
 40
1.0
 40
1.0
 40
1.0
 10
32.93338472751997
 20
94.98340487509628
 30
0.0
 10
32.93338472751997
 20
94.87097670768523
 30
0.0
 10
33.02017138306536
 20
94.78024520416042
 30
0.0
 10
33.12799722783387
 20
94.78024520416042
 30
0.0
  0
SPLINE
  5
1C4C
102
{ACAD_REACTORS
330
1DE8
102
}
330
A
100
AcDbEntity
  8
0
370
    13
100
AcDbSpline
210
0.0
220
0.0
230
1.0
 70
     8
 71
     3
 72
     8
 73
     4
 74
     0
 42
0.0000000001
 43
0.0000000001
 40
0.0
 40
0.0
 40
0.0
 40
0.0
 40
1.0
 40
1.0
 40
1.0
 40
1.0
 10
33.03923814829881
 20
95.85685996518774
 30
0.0
 10
32.97447689397137
 20
95.82234254536851
 30
0.0
 10
32.93338472751995
 20
95.75232149373537
 30
0.0
 10
32.93338472751995
 20
95.6763831701331
 30
0.0
  0
SPLINE
  5
1C4D
102
{ACAD_REACTORS
330
1DE8
102
}
330
A
100
AcDbEntity
  8
0
370
    13
100
AcDbSpline
210
0.0
220
0.0
230
1.0
 70
     8
 71
     3
 72
     8
 73
     4
 74
     0
 42
0.0000000001
 43
0.0000000001
 40
0.0
 40
0.0
 40
0.0
 40
0.0
 40
1.0
 40
1.0
 40
1.0
 40
1.0
 10
33.03903066592954
 20
95.85674921339679
 30
0.0
 10
38.43184533605199
 20
99.07815707764767
 30
0.0
 10
43.17322386988296
 20
103.3579883978962
 30
0.0
 10
47.00334252048719
 20
108.4560469365255
 30
0.0
  0
SPLINE
  5
1C4E
102
{ACAD_REACTORS
330
1DE7
102
}
330
A
100
AcDbEntity
  8
0
370
    13
100
AcDbSpline
210
0.0
220
0.0
230
1.0
 70
     8
 71
     3
 72
     8
 73
     4
 74
     0
 42
0.0000000001
 43
0.0000000001
 40
5.0
 40
5.0
 40
5.0
 40
5.0
 40
6.0
 40
6.0
 40
6.0
 40
6.0
 10
41.12178578346099
 20
26.56594963237306
 30
0.0
 10
40.9225709605045
 20
25.46204967282203
 30
0.0
 10
41.6563126846611
 20
24.40417293969663
 30
0.0
 10
42.76119885620697
 20
24.20561559140334
 30
0.0
  0
SPLINE
  5
1C4F
102
{ACAD_REACTORS
330
1DE7
102
}
330
A
100
AcDbEntity
  8
0
370
    13
100
AcDbSpline
210
0.0
220
0.0
230
1.0
 70
     8
 71
     3
 72
     8
 73
     4
 74
     0
 42
0.0000000001
 43
0.0000000001
 40
6.0
 40
6.0
 40
6.0
 40
6.0
 40
7.0
 40
7.0
 40
7.0
 40
7.0
 10
42.76119885620697
 20
24.20561559140334
 30
0.0
 10
42.88020177025027
 20
24.18424766484859
 30
0.0
 10
43.00084837095165
 20
24.17339933290541
 30
0.0
 10
43.12215244631629
 20
24.17339933290541
 30
0.0
  0
SPLINE
  5
1C50
102
{ACAD_REACTORS
330
1DE7
102
}
330
A
100
AcDbEntity
  8
0
370
    13
100
AcDbSpline
210
0.0
220
0.0
230
1.0
 70
    24
 71
     3
 72
     8
 73
     4
 74
     0
 42
0.0000000001
 43
0.0000000001
 40
7.0
 40
7.0
 40
7.0
 40
7.0
 40
8.0
 40
8.0
 40
8.0
 40
8.0
 10
43.12215244631629
 20
24.17339933290541
 30
0.0
 10
43.12215244631629
 20
24.17339933290541
 30
0.0
 10
46.18598437693437
 20
24.17339933290541
 30
0.0
 10
46.18598437693437
 20
24.17339933290541
 30
0.0
  0
SPLINE
  5
1C51
102
{ACAD_REACTORS
330
1DE7
102
}
330
A
100
AcDbEntity
  8
0
370
    13
100
AcDbSpline
210
0.0
220
0.0
230
1.0
 70
     8
 71
     3
 72
     8
 73
     4
 74
     0
 42
0.0000000001
 43
0.0000000001
 40
8.0
 40
8.0
 40
8.0
 40
8.0
 40
9.0
 40
9.0
 40
9.0
 40
9.0
 10
46.18598437693437
 20
24.17339933290541
 30
0.0
 10
47.30895110171885
 20
24.17339933290541
 30
0.0
 10
48.21856729828756
 20
25.08367300413734
 30
0.0
 10
48.21856729828756
 20
26.20532477959535
 30
0.0
  0
SPLINE
  5
1C52
102
{ACAD_REACTORS
330
1DE7
102
}
330
A
100
AcDbEntity
  8
0
370
    13
100
AcDbSpline
210
0.0
220
0.0
230
1.0
 70
     8
 71
     3
 72
     8
 73
     4
 74
     0
 42
0.0000000001
 43
0.0000000001
 40
0.0
 40
0.0
 40
0.0
 40
0.0
 40
1.0
 40
1.0
 40
1.0
 40
1.0
 10
48.21856729828756
 20
88.1930222402328
 30
0.0
 10
48.21856729828756
 20
89.31533149035407
 30
0.0
 10
47.30895110171885
 20
90.22560516158593
 30
0.0
 10
46.18598437693437
 20
90.22560516158593
 30
0.0
  0
SPLINE
  5
1C53
102
{ACAD_REACTORS
330
1DE7
102
}
330
A
100
AcDbEntity
  8
0
370
    13
100
AcDbSpline
210
0.0
220
0.0
230
1.0
 70
    24
 71
     3
 72
     8
 73
     4
 74
     0
 42
0.0000000001
 43
0.0000000001
 40
1.0
 40
1.0
 40
1.0
 40
1.0
 40
2.0
 40
2.0
 40
2.0
 40
2.0
 10
46.18598437693437
 20
90.22560516158593
 30
0.0
 10
46.18598437693437
 20
90.22560516158593
 30
0.0
 10
43.12806971828528
 20
90.22560516158593
 30
0.0
 10
43.12806971828528
 20
90.22560516158593
 30
0.0
  0
SPLINE
  5
1C54
102
{ACAD_REACTORS
330
1DE7
102
}
330
A
100
AcDbEntity
  8
0
370
    13
100
AcDbSpline
210
0.0
220
0.0
230
1.0
 70
     8
 71
     3
 72
    11
 73
     7
 74
     0
 42
0.0000000001
 43
0.0000000001
 40
2.0
 40
2.0
 40
2.0
 40
2.0
 40
3.0
 40
3.0
 40
3.0
 40
4.0
 40
4.0
 40
4.0
 40
4.0
 10
43.12806971828528
 20
90.22560516158593
 30
0.0
 10
42.00576046816401
 20
90.22560516158593
 30
0.0
 10
41.09548679693209
 20
89.31533149035407
 30
0.0
 10
41.09548679693209
 20
88.1930222402328
 30
0.0
 10
41.09548679693209
 20
88.07237563953139
 30
0.0
 10
41.10633512887527
 20
87.95205777616168
 30
0.0
 10
41.1280317927616
 20
87.83206865012351
 30
0.0
  0
SPLINE
  5
1C55
102
{ACAD_REACTORS
330
1DE7
102
}
330
A
100
AcDbEntity
  8
0
370
    13
100
AcDbSpline
210
0.0
220
0.0
230
1.0
 70
     8
 71
     3
 72
     8
 73
     4
 74
     0
 42
0.0000000001
 43
0.0000000001
 40
4.0
 40
4.0
 40
4.0
 40
4.0
 40
5.0
 40
5.0
 40
5.0
 40
5.0
 10
41.1280317927616
 20
87.83206865012351
 30
0.0
 10
44.77635869898477
 20
67.57330185224031
 30
0.0
 10
44.77405753766347
 20
46.82504516758778
 30
0.0
 10
41.12178578346099
 20
26.56594963237306
 30
0.0
  0
SPLINE
  5
1C56
102
{ACAD_REACTORS
330
1DE7
102
}
330
A
100
AcDbEntity
  8
0
370
    13
100
AcDbSpline
210
0.0
220
0.0
230
1.0
 70
    24
 71
     3
 72
     8
 73
     4
 74
     0
 42
0.0000000001
 43
0.0000000001
 40
9.0
 40
9.0
 40
9.0
 40
9.0
 40
10.0
 40
10.0
 40
10.0
 40
10.0
 10
48.21856729828756
 20
26.20532477959535
 30
0.0
 10
48.21856729828756
 20
26.20532477959535
 30
0.0
 10
48.21856729828756
 20
88.1930222402328
 30
0.0
 10
48.21856729828756
 20
88.1930222402328
 30
0.0
  0
SPLINE
  5
1C57
102
{ACAD_REACTORS
330
1DE6
102
}
330
A
100
AcDbEntity
  8
0
370
    13
100
AcDbSpline
210
0.0
220
0.0
230
1.0
 70
     8
 71
     3
 72
     8
 73
     4
 74
     0
 42
0.0000000001
 43
0.0000000001
 40
0.0
 40
0.0
 40
0.0
 40
0.0
 40
1.0
 40
1.0
 40
1.0
 40
1.0
 10
60.43116799697961
 20
13.30998025546711
 30
0.0
 10
61.359874800308
 20
13.97832113380056
 30
0.0
 10
62.61147635313804
 20
13.97832113380056
 30
0.0
 10
63.53949978133525
 20
13.30998025546711
 30
0.0
  0
SPLINE
  5
1C58
102
{ACAD_REACTORS
330
1DE6
102
}
330
A
100
AcDbEntity
  8
0
370
    13
100
AcDbSpline
210
0.0
220
0.0
230
1.0
 70
     8
 71
     3
 72
     8
 73
     4
 74
     0
 42
0.0000000001
 43
0.0000000001
 40
0.0
 40
0.0
 40
0.0
 40
0.0
 40
1.0
 40
1.0
 40
1.0
 40
1.0
 10
52.47018940582811
 20
13.30998025546711
 30
0.0
 10
51.5414826024996
 20
13.97832113380056
 30
0.0
 10
50.28988104966967
 20
13.97832113380056
 30
0.0
 10
49.36185762147236
 20
13.30998025546711
 30
0.0
  0
SPLINE
  5
1C59
330
A
100
AcDbEntity
  8
0
370
    13
100
AcDbSpline
210
0.0
220
0.0
230
1.0
 70
     8
 71
     3
 72
     8
 73
     4
 74
     0
 42
0.0000000001
 43
0.0000000001
 40
0.0
 40
0.0
 40
0.0
 40
0.0
 40
1.0
 40
1.0
 40
1.0
 40
1.0
 10
81.86476898038419
 20
27.56624976676991
 30
0.0
 10
81.86476898038419
 20
28.19769343934648
 30
0.0
 10
81.47059045728717
 20
28.76091390600241
 30
0.0
 10
80.87742758358828
 20
28.97695405808443
 30
0.0
  0
SPLINE
  5
1C5A
330
A
100
AcDbEntity
  8
0
370
    13
100
AcDbSpline
210
0.0
220
0.0
230
1.0
 70
     8
 71
     3
 72
     8
 73
     4
 74
     0
 42
0.0000000001
 43
0.0000000001
 40
0.0
 40
0.0
 40
0.0
 40
0.0
 40
1.0
 40
1.0
 40
1.0
 40
1.0
 10
79.8635549400455
 20
9.480332560858427
 30
0.0
 10
80.96914989377049
 20
9.480332560858427
 30
0.0
 10
81.86476898038419
 20
10.37557262966145
 30
0.0
 10
81.86476898038419
 20
11.48003052995444
 30
0.0
  0
SPLINE
  5
1C5B
330
A
100
AcDbEntity
  8
0
370
    13
100
AcDbSpline
210
0.0
220
0.0
230
1.0
 70
     8
 71
     3
 72
    11
 73
     7
 74
     0
 42
0.0000000001
 43
0.0000000001
 40
0.0
 40
0.0
 40
0.0
 40
0.0
 40
1.0
 40
1.0
 40
1.0
 40
2.0
 40
2.0
 40
2.0
 40
2.0
 10
72.94041561034351
 20
11.57023676889394
 30
0.0
 10
72.89152231276702
 20
10.46577886860096
 30
0.0
 10
73.74620747582835
 20
9.531120947488231
 30
0.0
 10
74.85066537612134
 20
9.481848632101106
 30
0.0
 10
74.88022876535362
 20
9.480332560858427
 30
0.0
 10
74.90979215458589
 20
9.480332560858427
 30
0.0
 10
74.9401135794395
 20
9.480332560858427
 30
0.0
  0
SPLINE
  5
1C5C
330
A
100
AcDbEntity
  8
0
370
    13
100
AcDbSpline
210
0.0
220
0.0
230
1.0
 70
     8
 71
     3
 72
    11
 73
     7
 74
     0
 42
0.0000000001
 43
0.0000000001
 40
0.0
 40
0.0
 40
0.0
 40
0.0
 40
1.0
 40
1.0
 40
1.0
 40
2.0
 40
2.0
 40
2.0
 40
2.0
 10
76.39857411489846
 20
30.60673064396632
 30
0.0
 10
75.36006531366209
 20
30.98499041901519
 30
0.0
 10
74.21202036514202
 20
30.4490592347275
 30
0.0
 10
73.83376059009318
 20
29.41055043349114
 30
0.0
 10
73.76402131292985
 20
29.21952545691336
 30
0.0
 10
73.72384542499881
 20
29.01940405287949
 30
0.0
 10
73.71512801535338
 20
28.81625050636026
 30
0.0
  0
SPLINE
  5
1C5D
330
A
100
AcDbEntity
  8
0
370
    13
100
AcDbSpline
210
0.0
220
0.0
230
1.0
 70
     8
 71
     3
 72
    11
 73
     7
 74
     0
 42
0.0000000001
 43
0.0000000001
 40
0.0
 40
0.0
 40
0.0
 40
0.0
 40
1.0
 40
1.0
 40
1.0
 40
2.0
 40
2.0
 40
2.0
 40
2.0
 10
77.56140075803466
 20
60.27245468512345
 30
0.0
 10
77.42305925714004
 20
59.17557714104388
 30
0.0
 10
78.20004576901395
 20
58.17497012087454
 30
0.0
 10
79.29692331309354
 20
58.03700763779057
 30
0.0
 10
79.61226613157115
 20
57.99758978548087
 30
0.0
 10
79.93291519939815
 20
58.03321745968386
 30
0.0
 10
80.23158123420627
 20
58.14161655353555
 30
0.0
  0
SPLINE
  5
1C5E
330
A
100
AcDbEntity
  8
0
370
    13
100
AcDbSpline
210
0.0
220
0.0
230
1.0
 70
     8
 71
     3
 72
    11
 73
     7
 74
     0
 42
0.0000000001
 43
0.0000000001
 40
0.0
 40
0.0
 40
0.0
 40
0.0
 40
1.0
 40
1.0
 40
1.0
 40
2.0
 40
2.0
 40
2.0
 40
2.0
 10
82.06489038441807
 20
76.21318576629099
 30
0.0
 10
82.06489038441807
 20
76.89920800360408
 30
0.0
 10
81.5084922383542
 20
77.4563641852893
 30
0.0
 10
80.82171196541976
 20
77.4563641852893
 30
0.0
 10
80.19595356000326
 20
77.4563641852893
 30
0.0
 10
79.66722371411832
 20
76.99017227816495
 30
0.0
 10
79.5887670273096
 20
76.3685830686658
 30
0.0
  0
SPLINE
  5
1C5F
330
A
100
AcDbEntity
  8
0
370
    13
100
AcDbSpline
210
0.0
220
0.0
230
1.0
 70
     8
 71
     3
 72
     8
 73
     4
 74
     0
 42
0.0000000001
 43
0.0000000001
 40
0.0
 40
0.0
 40
0.0
 40
0.0
 40
1.0
 40
1.0
 40
1.0
 40
1.0
 10
81.07754898762216
 20
58.45013705142108
 30
0.0
 10
81.67071186132105
 20
58.66617720350311
 30
0.0
 10
82.06489038441807
 20
59.22939767015904
 30
0.0
 10
82.06489038441807
 20
59.86084134273562
 30
0.0
  0
SPLINE
  5
1C60
330
A
100
AcDbEntity
  8
0
370
    13
100
AcDbSpline
210
0.0
220
0.0
230
1.0
 70
     8
 71
     3
 72
     8
 73
     4
 74
     0
 42
0.0000000001
 43
0.0000000001
 40
0.0
 40
0.0
 40
0.0
 40
0.0
 40
1.0
 40
1.0
 40
1.0
 40
1.0
 10
74.39356989645306
 20
35.1231068759125
 30
0.0
 10
74.2772114285773
 20
34.19602931101319
 30
0.0
 10
74.81731180878236
 20
33.31215977653025
 30
0.0
 10
75.69549607610523
 20
32.99302677994594
 30
0.0
  0
SPLINE
  5
1C61
330
A
100
AcDbEntity
  8
0
370
    13
100
AcDbSpline
210
0.0
220
0.0
230
1.0
 70
     8
 71
     3
 72
     8
 73
     4
 74
     0
 42
0.0000000001
 43
0.0000000001
 40
0.0
 40
0.0
 40
0.0
 40
0.0
 40
1.0
 40
1.0
 40
1.0
 40
1.0
 10
78.01925427332427
 20
55.20801869894815
 30
0.0
 10
77.31466016328835
 20
54.95104462331374
 30
0.0
 10
76.81246156415032
 20
54.32111702197986
 30
0.0
 10
76.71846514710411
 20
53.57748407744491
 30
0.0
  0
SPLINE
  5
1C62
330
A
100
AcDbEntity
  8
0
370
    13
100
AcDbSpline
210
0.0
220
0.0
230
1.0
 70
     8
 71
     3
 72
    11
 73
     7
 74
     0
 42
0.0000000001
 43
0.0000000001
 40
0.0
 40
0.0
 40
0.0
 40
0.0
 40
1.0
 40
1.0
 40
1.0
 40
2.0
 40
2.0
 40
2.0
 40
2.0
 10
81.86476898038419
 20
54.46362771879185
 30
0.0
 10
81.86476898038419
 20
55.29216065291694
 30
0.0
 10
81.19352843768727
 20
55.96453824904586
 30
0.0
 10
80.36423746794083
 20
55.96453824904586
 30
0.0
 10
80.18875222160055
 20
55.96453824904586
 30
0.0
 10
80.01516206431359
 20
55.93345878857092
 30
0.0
 10
79.85028931667203
 20
55.87433201010637
 30
0.0
  0
SPLINE
  5
1C63
330
A
100
AcDbEntity
  8
0
370
    13
100
AcDbSpline
210
0.0
220
0.0
230
1.0
 70
     8
 71
     3
 72
    11
 73
     7
 74
     0
 42
0.0000000001
 43
0.0000000001
 40
0.0
 40
0.0
 40
0.0
 40
0.0
 40
1.0
 40
1.0
 40
1.0
 40
2.0
 40
2.0
 40
2.0
 40
2.0
 10
79.85028931667203
 20
31.47998767975048
 30
0.0
 10
80.62992895322066
 20
31.19572432174783
 30
0.0
 10
81.49067840125269
 20
31.59824123667958
 30
0.0
 10
81.77380470582335
 20
32.37674381979619
 30
0.0
 10
81.83444755553058
 20
32.54199558524841
 30
0.0
 10
81.86476898038419
 20
32.71482770691402
 30
0.0
 10
81.86476898038419
 20
32.89145000668633
 30
0.0
  0
SPLINE
  5
1C64
330
A
100
AcDbEntity
  8
0
370
    13
100
AcDbSpline
210
0.0
220
0.0
230
1.0
 70
     8
 71
     3
 72
     8
 73
     4
 74
     0
 42
0.0000000001
 43
0.0000000001
 40
0.0
 40
0.0
 40
0.0
 40
0.0
 40
1.0
 40
1.0
 40
1.0
 40
1.0
 10
68.66585274160489
 20
13.35118786414153
 30
0.0
 10
68.57564650266539
 20
14.38514845164986
 30
0.0
 10
67.71034884090529
 20
15.17805371157193
 30
0.0
 10
66.67259807529027
 20
15.17805371157193
 30
0.0
  0
SPLINE
  5
1C65
330
A
100
AcDbEntity
  8
0
370
    13
100
AcDbSpline
210
0.0
220
0.0
230
1.0
 70
     8
 71
     3
 72
    11
 73
     7
 74
     0
 42
0.0000000001
 43
0.0000000001
 40
0.0
 40
0.0
 40
0.0
 40
0.0
 40
1.0
 40
1.0
 40
1.0
 40
2.0
 40
2.0
 40
2.0
 40
2.0
 10
66.83860787636381
 20
9.280969192445891
 30
0.0
 10
67.94382381227816
 20
9.280969192445891
 30
0.0
 10
68.84057995232386
 20
10.17696729687026
 30
0.0
 10
68.84057995232386
 20
11.28218323278459
 30
0.0
 10
68.84057995232386
 20
11.3405519756278
 30
0.0
 10
68.83716879202783
 20
11.39892071847101
 30
0.0
 10
68.83262057829977
 20
11.45653142569288
 30
0.0
  0
SPLINE
  5
1C66
330
A
100
AcDbEntity
  8
0
370
    13
100
AcDbSpline
210
0.0
220
0.0
230
1.0
 70
     8
 71
     3
 72
    11
 73
     7
 74
     0
 42
0.0000000001
 43
0.0000000001
 40
0.0
 40
0.0
 40
0.0
 40
0.0
 40
1.0
 40
1.0
 40
1.0
 40
2.0
 40
2.0
 40
2.0
 40
2.0
 10
38.16401541010928
 20
11.72861153010463
 30
0.0
 10
37.88998553299473
 20
10.70835026742989
 30
0.0
 10
38.53583188237675
 20
9.617537008321043
 30
0.0
 10
39.60693621533076
 20
9.34464418463849
 30
0.0
 10
39.76839780267629
 20
9.302194189843424
 30
0.0
 10
39.93516563937117
 20
9.280969192445891
 30
0.0
 10
40.10307052949807
 20
9.280969192445891
 30
0.0
  0
SPLINE
  5
1C67
330
A
100
AcDbEntity
  8
0
370
    13
100
AcDbSpline
210
0.0
220
0.0
230
1.0
 70
     8
 71
     3
 72
     8
 73
     4
 74
     0
 42
0.0000000001
 43
0.0000000001
 40
0.0
 40
0.0
 40
0.0
 40
0.0
 40
1.0
 40
1.0
 40
1.0
 40
1.0
 10
40.58897136277728
 20
15.17805371157193
 30
0.0
 10
39.67440138563006
 20
15.17805371157193
 30
0.0
 10
38.87656889416928
 20
14.55873860893682
 30
0.0
 10
38.65067427900983
 20
13.67259496758987
 30
0.0
  0
SPLINE
  5
1C68
330
A
100
AcDbEntity
  8
0
370
    13
100
AcDbSpline
210
0.0
220
0.0
230
1.0
 70
     8
 71
     3
 72
    11
 73
     7
 74
     0
 42
0.0000000001
 43
0.0000000001
 40
0.0
 40
0.0
 40
0.0
 40
0.0
 40
1.0
 40
1.0
 40
1.0
 40
2.0
 40
2.0
 40
2.0
 40
2.0
 10
37.75316010334277
 20
36.56034241397394
 30
0.0
 10
36.71465130210641
 20
36.93860218902281
 30
0.0
 10
35.56660635358636
 20
36.40342904035648
 30
0.0
 10
35.18872559634814
 20
35.36416220349876
 30
0.0
 10
35.10875283829676
 20
35.14508990893139
 30
0.0
 10
35.0674398969337
 20
34.91313100880122
 30
0.0
 10
35.0674398969337
 20
34.67965603742837
 30
0.0
  0
SPLINE
  5
1C69
330
A
100
AcDbEntity
  8
0
370
    13
100
AcDbSpline
210
0.0
220
0.0
230
1.0
 70
     8
 71
     3
 72
     8
 73
     4
 74
     0
 42
0.0000000001
 43
0.0000000001
 40
0.0
 40
0.0
 40
0.0
 40
0.0
 40
1.0
 40
1.0
 40
1.0
 40
1.0
 10
39.83283083049022
 20
33.29927317096747
 30
0.0
 10
40.01665446866525
 20
34.69633282109786
 30
0.0
 10
39.20631438945235
 20
36.03199158589967
 30
0.0
 10
37.88354223021332
 20
36.51334420545083
 30
0.0
  0
SPLINE
  5
1C6A
330
A
100
AcDbEntity
  8
0
370
    13
100
AcDbSpline
210
0.0
220
0.0
230
1.0
 70
     8
 71
     3
 72
     8
 73
     4
 74
     0
 42
0.0000000001
 43
0.0000000001
 40
0.0
 40
0.0
 40
0.0
 40
0.0
 40
1.0
 40
1.0
 40
1.0
 40
1.0
 10
38.04121363945215
 20
22.4172938953729
 30
0.0
 10
38.75149301664811
 20
26.03994612975873
 30
0.0
 10
39.34920410407503
 20
29.64023522675729
 30
0.0
 10
39.83283083049022
 20
33.29927317096747
 30
0.0
  0
SPLINE
  5
1C6B
330
A
100
AcDbEntity
  8
0
370
    13
100
AcDbSpline
210
0.0
220
0.0
230
1.0
 70
     8
 71
     3
 72
    11
 73
     7
 74
     0
 42
0.0000000001
 43
0.0000000001
 40
0.0
 40
0.0
 40
0.0
 40
0.0
 40
1.0
 40
1.0
 40
1.0
 40
2.0
 40
2.0
 40
2.0
 40
2.0
 10
35.0674398969337
 20
22.70534743148224
 30
0.0
 10
35.0674398969337
 20
21.87757253297851
 30
0.0
 10
35.73981749306267
 20
21.20519493684957
 30
0.0
 10
36.56872944499838
 20
21.20519493684957
 30
0.0
 10
37.2858311427864
 20
21.20519493684957
 30
0.0
 10
37.90325115636818
 20
21.71383683876899
 30
0.0
 10
38.04121363945215
 20
22.4172938953729
 30
0.0
  0
SPLINE
  5
1C6C
330
A
100
AcDbEntity
  8
0
370
    13
100
AcDbSpline
210
0.0
220
0.0
230
1.0
 70
     8
 71
     3
 72
    11
 73
     7
 74
     0
 42
0.0000000001
 43
0.0000000001
 40
0.0
 40
0.0
 40
0.0
 40
0.0
 40
1.0
 40
1.0
 40
1.0
 40
2.0
 40
2.0
 40
2.0
 40
2.0
 10
41.41712527909167
 20
65.91299774351746
 30
0.0
 10
41.35875653624845
 20
67.01669760818909
 30
0.0
 10
40.41727629454368
 20
67.86418143284769
 30
0.0
 10
39.31357642987201
 20
67.80581269000447
 30
0.0
 10
39.11572913270218
 20
67.79595822692704
 30
0.0
 10
38.92091397801769
 20
67.75654037461736
 30
0.0
 10
38.73443721516794
 20
67.68831716869669
 30
0.0
  0
SPLINE
  5
1C6D
330
A
100
AcDbEntity
  8
0
370
    13
100
AcDbSpline
210
0.0
220
0.0
230
1.0
 70
     8
 71
     3
 72
     8
 73
     4
 74
     0
 42
0.0000000001
 43
0.0000000001
 40
0.0
 40
0.0
 40
0.0
 40
0.0
 40
1.0
 40
1.0
 40
1.0
 40
1.0
 10
41.00892309699986
 20
41.31777397350638
 30
0.0
 10
41.71124310017176
 20
49.49697832776945
 30
0.0
 10
41.84768951201303
 20
57.71484249872089
 30
0.0
 10
41.41712527909167
 20
65.91299774351746
 30
0.0
  0
SPLINE
  5
1C6E
330
A
100
AcDbEntity
  8
0
370
    13
100
AcDbSpline
210
0.0
220
0.0
230
1.0
 70
     8
 71
     3
 72
    11
 73
     7
 74
     0
 42
0.0000000001
 43
0.0000000001
 40
0.0
 40
0.0
 40
0.0
 40
0.0
 40
1.0
 40
1.0
 40
1.0
 40
2.0
 40
2.0
 40
2.0
 40
2.0
 10
36.99095528608501
 20
38.75409750213309
 30
0.0
 10
38.54871848793953
 20
38.18708685737048
 30
0.0
 10
40.27135443743563
 20
38.99060461599132
 30
0.0
 10
40.83874410000894
 20
40.54836781784586
 30
0.0
 10
40.92895033894845
 20
40.79624546602418
 30
0.0
 10
40.98618202835965
 20
41.05473561290125
 30
0.0
 10
41.00892309699986
 20
41.31777397350638
 30
0.0
  0
SPLINE
  5
1C6F
330
A
100
AcDbEntity
  8
0
370
    13
100
AcDbSpline
210
0.0
220
0.0
230
1.0
 70
     8
 71
     3
 72
     8
 73
     4
 74
     0
 42
0.0000000001
 43
0.0000000001
 40
0.0
 40
0.0
 40
0.0
 40
0.0
 40
1.0
 40
1.0
 40
1.0
 40
1.0
 10
35.0674398969337
 20
40.85537224448872
 30
0.0
 10
35.0674398969337
 20
40.0147107404222
 30
0.0
 10
35.59389563595459
 20
39.26349743967387
 30
0.0
 10
36.38490580682334
 20
38.97544390356449
 30
0.0
  0
SPLINE
  5
1C70
330
A
100
AcDbEntity
  8
0
370
    13
100
AcDbSpline
210
0.0
220
0.0
230
1.0
 70
     8
 71
     3
 72
     8
 73
     4
 74
     0
 42
0.0000000001
 43
0.0000000001
 40
0.0
 40
0.0
 40
0.0
 40
0.0
 40
1.0
 40
1.0
 40
1.0
 40
1.0
 10
36.38490580682334
 20
66.83325298782472
 30
0.0
 10
35.59389563595459
 20
66.54519945171537
 30
0.0
 10
35.0674398969337
 20
65.79398615096703
 30
0.0
 10
35.0674398969337
 20
64.95256661127915
 30
0.0
  0
SPLINE
  5
1C71
330
A
100
AcDbEntity
  8
0
370
    13
100
AcDbSpline
210
0.0
220
0.0
230
1.0
 70
     8
 71
     3
 72
     8
 73
     4
 74
     0
 42
0.0000000001
 43
0.0000000001
 40
0.0
 40
0.0
 40
0.0
 40
0.0
 40
1.0
 40
1.0
 40
1.0
 40
1.0
 10
84.06610442475674
 20
93.78039621961242
 30
0.0
 10
84.06610442475674
 20
94.33224615194827
 30
0.0
 10
83.61848439035524
 20
94.78024520416044
 30
0.0
 10
83.0654974045874
 20
94.78024520416044
 30
0.0
  0
SPLINE
  5
1C72
330
A
100
AcDbEntity
  8
0
370
    13
100
AcDbSpline
210
0.0
220
0.0
230
1.0
 70
     8
 71
     3
 72
     8
 73
     4
 74
     0
 42
0.0000000001
 43
0.0000000001
 40
0.0
 40
0.0
 40
0.0
 40
0.0
 40
1.0
 40
1.0
 40
1.0
 40
1.0
 10
82.01448101559893
 20
94.78024520416044
 30
0.0
 10
81.90456585050455
 20
94.78024520416044
 30
0.0
 10
81.81435961156505
 20
94.69079700084227
 30
0.0
 10
81.81435961156505
 20
94.5808818357479
 30
0.0
  0
SPLINE
  5
1C73
330
A
100
AcDbEntity
  8
0
370
    13
100
AcDbSpline
210
0.0
220
0.0
230
1.0
 70
     8
 71
     3
 72
     8
 73
     4
 74
     0
 42
0.0000000001
 43
0.0000000001
 40
0.0
 40
0.0
 40
0.0
 40
0.0
 40
1.0
 40
1.0
 40
1.0
 40
1.0
 10
81.81435961156505
 20
93.78039621961242
 30
0.0
 10
81.81435961156505
 20
93.66972301889674
 30
0.0
 10
81.90456585050455
 20
93.58027481557854
 30
0.0
 10
82.01448101559893
 20
93.58027481557854
 30
0.0
  0
SPLINE
  5
1C74
330
A
100
AcDbEntity
  8
0
370
    13
100
AcDbSpline
210
0.0
220
0.0
230
1.0
 70
     8
 71
     3
 72
     8
 73
     4
 74
     0
 42
0.0000000001
 43
0.0000000001
 40
0.0
 40
0.0
 40
0.0
 40
0.0
 40
1.0
 40
1.0
 40
1.0
 40
1.0
 10
82.56481487669205
 20
93.3801534115447
 30
0.0
 10
82.56481487669205
 20
93.49006857663907
 30
0.0
 10
82.47574569118455
 20
93.58027481557854
 30
0.0
 10
82.36545150827954
 20
93.58027481557854
 30
0.0
  0
SPLINE
  5
1C75
330
A
100
AcDbEntity
  8
0
370
    13
100
AcDbSpline
210
0.0
220
0.0
230
1.0
 70
     8
 71
     3
 72
     8
 73
     4
 74
     0
 42
0.0000000001
 43
0.0000000001
 40
0.0
 40
0.0
 40
0.0
 40
0.0
 40
1.0
 40
1.0
 40
1.0
 40
1.0
 10
82.36545150827954
 20
91.7784241436524
 30
0.0
 10
82.47574569118455
 20
91.7784241436524
 30
0.0
 10
82.56481487669205
 20
91.8686303825919
 30
0.0
 10
82.56481487669205
 20
91.9793035833076
 30
0.0
  0
SPLINE
  5
1C76
330
A
100
AcDbEntity
  8
0
370
    13
100
AcDbSpline
210
0.0
220
0.0
230
1.0
 70
     8
 71
     3
 72
     8
 73
     4
 74
     0
 42
0.0000000001
 43
0.0000000001
 40
0.0
 40
0.0
 40
0.0
 40
0.0
 40
1.0
 40
1.0
 40
1.0
 40
1.0
 10
82.11454171761586
 20
91.7784241436524
 30
0.0
 10
82.00462655252151
 20
91.7784241436524
 30
0.0
 10
81.91442031358198
 20
91.68973397595559
 30
0.0
 10
81.91442031358198
 20
91.57906077523987
 30
0.0
  0
SPLINE
  5
1C77
330
A
100
AcDbEntity
  8
0
370
    13
100
AcDbSpline
210
0.0
220
0.0
230
1.0
 70
     8
 71
     3
 72
     8
 73
     4
 74
     0
 42
0.0000000001
 43
0.0000000001
 40
0.0
 40
0.0
 40
0.0
 40
0.0
 40
1.0
 40
1.0
 40
1.0
 40
1.0
 10
81.91442031358198
 20
90.97869656313827
 30
0.0
 10
81.91442031358198
 20
90.86802336242257
 30
0.0
 10
82.00462655252151
 20
90.78009123034705
 30
0.0
 10
82.11454171761586
 20
90.78009123034705
 30
0.0
  0
SPLINE
  5
1C78
330
A
100
AcDbEntity
  8
0
370
    13
100
AcDbSpline
210
0.0
220
0.0
230
1.0
 70
     8
 71
     3
 72
     8
 73
     4
 74
     0
 42
0.0000000001
 43
0.0000000001
 40
0.0
 40
0.0
 40
0.0
 40
0.0
 40
1.0
 40
1.0
 40
1.0
 40
1.0
 10
82.56481487669205
 20
90.57845375507051
 30
0.0
 10
82.56481487669205
 20
90.68912695578623
 30
0.0
 10
82.47574569118455
 20
90.78009123034705
 30
0.0
 10
82.36545150827954
 20
90.78009123034705
 30
0.0
  0
SPLINE
  5
1C79
330
A
100
AcDbEntity
  8
0
370
    13
100
AcDbSpline
210
0.0
220
0.0
230
1.0
 70
     8
 71
     3
 72
     8
 73
     4
 74
     0
 42
0.0000000001
 43
0.0000000001
 40
0.0
 40
0.0
 40
0.0
 40
0.0
 40
1.0
 40
1.0
 40
1.0
 40
1.0
 10
82.36545150827954
 20
87.77751213421771
 30
0.0
 10
82.47574569118455
 20
87.77751213421771
 30
0.0
 10
82.56481487669205
 20
87.86620230191454
 30
0.0
 10
82.56481487669205
 20
87.97687550263024
 30
0.0
  0
SPLINE
  5
1C7A
330
A
100
AcDbEntity
  8
0
370
    13
100
AcDbSpline
210
0.0
220
0.0
230
1.0
 70
     8
 71
     3
 72
     8
 73
     4
 74
     0
 42
0.0000000001
 43
0.0000000001
 40
0.0
 40
0.0
 40
0.0
 40
0.0
 40
1.0
 40
1.0
 40
1.0
 40
1.0
 10
78.56276581382534
 20
87.97687550263024
 30
0.0
 10
78.56276581382534
 20
87.86620230191454
 30
0.0
 10
78.65183499933285
 20
87.77751213421771
 30
0.0
 10
78.76288721785922
 20
87.77751213421771
 30
0.0
  0
SPLINE
  5
1C7B
330
A
100
AcDbEntity
  8
0
370
    13
100
AcDbSpline
210
0.0
220
0.0
230
1.0
 70
     8
 71
     3
 72
     8
 73
     4
 74
     0
 42
0.0000000001
 43
0.0000000001
 40
0.0
 40
0.0
 40
0.0
 40
0.0
 40
1.0
 40
1.0
 40
1.0
 40
1.0
 10
78.76288721785922
 20
90.78009123034705
 30
0.0
 10
78.65183499933285
 20
90.78009123034705
 30
0.0
 10
78.56276581382534
 20
90.68912695578623
 30
0.0
 10
78.56276581382534
 20
90.57845375507051
 30
0.0
  0
SPLINE
  5
1C7C
330
A
100
AcDbEntity
  8
0
370
    13
100
AcDbSpline
210
0.0
220
0.0
230
1.0
 70
     8
 71
     3
 72
     8
 73
     4
 74
     0
 42
0.0000000001
 43
0.0000000001
 40
0.0
 40
0.0
 40
0.0
 40
0.0
 40
1.0
 40
1.0
 40
1.0
 40
1.0
 10
79.01303897290157
 20
90.78009123034705
 30
0.0
 10
79.12409119142792
 20
90.78009123034705
 30
0.0
 10
79.21316037693542
 20
90.86802336242257
 30
0.0
 10
79.21316037693542
 20
90.97869656313827
 30
0.0
  0
SPLINE
  5
1C7D
330
A
100
AcDbEntity
  8
0
370
    13
100
AcDbSpline
210
0.0
220
0.0
230
1.0
 70
     8
 71
     3
 72
     8
 73
     4
 74
     0
 42
0.0000000001
 43
0.0000000001
 40
0.0
 40
0.0
 40
0.0
 40
0.0
 40
1.0
 40
1.0
 40
1.0
 40
1.0
 10
79.21316037693542
 20
91.57906077523987
 30
0.0
 10
79.21316037693542
 20
91.68973397595559
 30
0.0
 10
79.12409119142792
 20
91.7784241436524
 30
0.0
 10
79.01303897290157
 20
91.7784241436524
 30
0.0
  0
SPLINE
  5
1C7E
330
A
100
AcDbEntity
  8
0
370
    13
100
AcDbSpline
210
0.0
220
0.0
230
1.0
 70
     8
 71
     3
 72
     8
 73
     4
 74
     0
 42
0.0000000001
 43
0.0000000001
 40
0.0
 40
0.0
 40
0.0
 40
0.0
 40
1.0
 40
1.0
 40
1.0
 40
1.0
 10
78.56276581382534
 20
91.9793035833076
 30
0.0
 10
78.56276581382534
 20
91.8686303825919
 30
0.0
 10
78.65183499933285
 20
91.7784241436524
 30
0.0
 10
78.76288721785922
 20
91.7784241436524
 30
0.0
  0
SPLINE
  5
1C7F
330
A
100
AcDbEntity
  8
0
370
    13
100
AcDbSpline
210
0.0
220
0.0
230
1.0
 70
     8
 71
     3
 72
     8
 73
     4
 74
     0
 42
0.0000000001
 43
0.0000000001
 40
0.0
 40
0.0
 40
0.0
 40
0.0
 40
1.0
 40
1.0
 40
1.0
 40
1.0
 10
78.76288721785922
 20
93.58027481557854
 30
0.0
 10
78.65183499933285
 20
93.58027481557854
 30
0.0
 10
78.56276581382534
 20
93.49006857663907
 30
0.0
 10
78.56276581382534
 20
93.3801534115447
 30
0.0
  0
SPLINE
  5
1C80
330
A
100
AcDbEntity
  8
0
370
    13
100
AcDbSpline
210
0.0
220
0.0
230
1.0
 70
     8
 71
     3
 72
     8
 73
     4
 74
     0
 42
0.0000000001
 43
0.0000000001
 40
0.0
 40
0.0
 40
0.0
 40
0.0
 40
1.0
 40
1.0
 40
1.0
 40
1.0
 10
79.11309967491849
 20
93.58027481557854
 30
0.0
 10
79.2233938578235
 20
93.58027481557854
 30
0.0
 10
79.31322107895235
 20
93.66972301889674
 30
0.0
 10
79.31322107895235
 20
93.78039621961242
 30
0.0
  0
SPLINE
  5
1C81
330
A
100
AcDbEntity
  8
0
370
    13
100
AcDbSpline
210
0.0
220
0.0
230
1.0
 70
     8
 71
     3
 72
     8
 73
     4
 74
     0
 42
0.0000000001
 43
0.0000000001
 40
0.0
 40
0.0
 40
0.0
 40
0.0
 40
1.0
 40
1.0
 40
1.0
 40
1.0
 10
79.31322107895235
 20
94.5808818357479
 30
0.0
 10
79.31322107895235
 20
94.69079700084227
 30
0.0
 10
79.2233938578235
 20
94.78024520416044
 30
0.0
 10
79.11309967491849
 20
94.78024520416044
 30
0.0
  0
SPLINE
  5
1C82
330
A
100
AcDbEntity
  8
0
370
    13
100
AcDbSpline
210
0.0
220
0.0
230
1.0
 70
     8
 71
     3
 72
     8
 73
     4
 74
     0
 42
0.0000000001
 43
0.0000000001
 40
0.0
 40
0.0
 40
0.0
 40
0.0
 40
1.0
 40
1.0
 40
1.0
 40
1.0
 10
78.06208328593
 20
94.78024520416044
 30
0.0
 10
77.50947531797284
 20
94.78024520416044
 30
0.0
 10
77.06147626576066
 20
94.33224615194827
 30
0.0
 10
77.06147626576066
 20
93.78039621961242
 30
0.0
  0
SPLINE
  5
1C83
330
A
100
AcDbEntity
  8
0
370
    13
100
AcDbSpline
210
0.0
220
0.0
230
1.0
 70
     8
 71
     3
 72
     8
 73
     4
 74
     0
 42
0.0000000001
 43
0.0000000001
 40
0.0
 40
0.0
 40
0.0
 40
0.0
 40
1.0
 40
1.0
 40
1.0
 40
1.0
 10
77.06147626576066
 20
86.94064080825787
 30
0.0
 10
77.17631866239372
 20
86.49567389853107
 30
0.0
 10
77.6080199487471
 20
86.20837839804304
 30
0.0
 10
78.06284132155133
 20
86.27584356834232
 30
0.0
  0
SPLINE
  5
1C84
330
A
100
AcDbEntity
  8
0
370
    13
100
AcDbSpline
210
0.0
220
0.0
230
1.0
 70
     8
 71
     3
 72
     8
 73
     4
 74
     0
 42
0.0000000001
 43
0.0000000001
 40
0.0
 40
0.0
 40
0.0
 40
0.0
 40
1.0
 40
1.0
 40
1.0
 40
1.0
 10
82.06489038441807
 20
85.27523654817299
 30
0.0
 10
82.06489038441807
 20
85.82784451613015
 30
0.0
 10
81.61727035001653
 20
86.27584356834232
 30
0.0
 10
81.06466238205937
 20
86.27584356834232
 30
0.0
  0
SPLINE
  5
1C85
330
A
100
AcDbEntity
  8
0
370
    13
100
AcDbSpline
210
0.0
220
0.0
230
1.0
 70
     8
 71
     3
 72
     8
 73
     4
 74
     0
 42
0.0000000001
 43
0.0000000001
 40
0.0
 40
0.0
 40
0.0
 40
0.0
 40
1.0
 40
1.0
 40
1.0
 40
1.0
 10
81.06466238205937
 20
79.45682019000663
 30
0.0
 10
81.61727035001653
 20
79.45682019000663
 30
0.0
 10
82.06489038441807
 20
79.90481924221882
 30
0.0
 10
82.06489038441807
 20
80.457427210176
 30
0.0
  0
SPLINE
  5
1C86
330
A
100
AcDbEntity
  8
0
370
    13
100
AcDbSpline
210
0.0
220
0.0
230
1.0
 70
     8
 71
     3
 72
     8
 73
     4
 74
     0
 42
0.0000000001
 43
0.0000000001
 40
0.0
 40
0.0
 40
0.0
 40
0.0
 40
1.0
 40
1.0
 40
1.0
 40
1.0
 10
78.04654355569252
 20
79.45682019000663
 30
0.0
 10
77.9859007059853
 20
79.45682019000663
 30
0.0
 10
77.92791098095275
 20
79.43938537071581
 30
0.0
 10
77.87712259432294
 20
79.40527376775552
 30
0.0
  0
SPLINE
  5
1C87
330
A
100
AcDbEntity
  8
0
370
    13
100
AcDbSpline
210
0.0
220
0.0
230
1.0
 70
     8
 71
     3
 72
    11
 73
     7
 74
     0
 42
0.0000000001
 43
0.0000000001
 40
0.0
 40
0.0
 40
0.0
 40
0.0
 40
1.0
 40
1.0
 40
1.0
 40
2.0
 40
2.0
 40
2.0
 40
2.0
 10
77.87712259432294
 20
79.40527376775552
 30
0.0
 10
77.30594275364295
 20
79.0171595296292
 30
0.0
 10
77.15774678967088
 20
78.23941498213395
 30
0.0
 10
77.54586102779718
 20
77.66785612364329
 30
0.0
 10
77.5939962897523
 20
77.59735881085861
 30
0.0
 10
77.64895387229947
 20
77.531409711802
 30
0.0
 10
77.71111279324938
 20
77.47152489771611
 30
0.0
  0
SPLINE
  5
1C88
330
A
100
AcDbEntity
  8
0
370
    13
100
AcDbSpline
210
0.0
220
0.0
230
1.0
 70
     8
 71
     3
 72
    11
 73
     7
 74
     0
 42
0.0000000001
 43
0.0000000001
 40
0.0
 40
0.0
 40
0.0
 40
0.0
 40
1.0
 40
1.0
 40
1.0
 40
2.0
 40
2.0
 40
2.0
 40
2.0
 10
77.33550614287522
 20
74.49396097709096
 30
0.0
 10
76.73552094858428
 20
74.1513288762451
 30
0.0
 10
76.52668213490499
 20
73.38798700555528
 30
0.0
 10
76.86893521794018
 20
72.78762279345369
 30
0.0
 10
76.9273039607834
 20
72.68452994895139
 30
0.0
 10
77.00007538043209
 20
72.59053353190518
 30
0.0
 10
77.08573340564355
 20
72.50866568480041
 30
0.0
  0
SPLINE
  5
1C89
330
A
100
AcDbEntity
  8
0
370
    13
100
AcDbSpline
210
0.0
220
0.0
230
1.0
 70
     8
 71
     3
 72
    11
 73
     7
 74
     0
 42
0.0000000001
 43
0.0000000001
 40
0.0
 40
0.0
 40
0.0
 40
0.0
 40
1.0
 40
1.0
 40
1.0
 40
2.0
 40
2.0
 40
2.0
 40
2.0
 10
76.71050577308005
 20
69.53034372855393
 30
0.0
 10
76.11052057878911
 20
69.18771162770804
 30
0.0
 10
75.90092372948848
 20
68.42361172139691
 30
0.0
 10
76.24317681252367
 20
67.82400554491665
 30
0.0
 10
76.30230359098821
 20
67.72091270041435
 30
0.0
 10
76.37545402844757
 20
67.62767431898947
 30
0.0
 10
76.46073303584836
 20
67.54429040064202
 30
0.0
  0
SPLINE
  5
1C8A
330
A
100
AcDbEntity
  8
0
370
    13
100
AcDbSpline
210
0.0
220
0.0
230
1.0
 70
     8
 71
     3
 72
    11
 73
     7
 74
     0
 42
0.0000000001
 43
0.0000000001
 40
0.0
 40
0.0
 40
0.0
 40
0.0
 40
1.0
 40
1.0
 40
1.0
 40
2.0
 40
2.0
 40
2.0
 40
2.0
 10
76.0851263854742
 20
64.56672648001689
 30
0.0
 10
75.48514119118324
 20
64.22485241479238
 30
0.0
 10
75.27630237750398
 20
63.46075250848125
 30
0.0
 10
75.61855546053918
 20
62.86038829637963
 30
0.0
 10
75.67654518557171
 20
62.75729545187733
 30
0.0
 10
75.75045365865242
 20
62.66329903483111
 30
0.0
 10
75.83497463043186
 20
62.58218922334769
 30
0.0
  0
SPLINE
  5
1C8B
330
A
100
AcDbEntity
  8
0
370
    13
100
AcDbSpline
210
0.0
220
0.0
230
1.0
 70
     8
 71
     3
 72
    11
 73
     7
 74
     0
 42
0.0000000001
 43
0.0000000001
 40
0.0
 40
0.0
 40
0.0
 40
0.0
 40
1.0
 40
1.0
 40
1.0
 40
2.0
 40
2.0
 40
2.0
 40
2.0
 10
75.46012601567904
 20
59.60310923147987
 30
0.0
 10
74.86014082138808
 20
59.26047713063399
 30
0.0
 10
74.65130200770879
 20
58.4971352599442
 30
0.0
 10
74.99279705512266
 20
57.89677104784259
 30
0.0
 10
75.05192383358722
 20
57.79443623896163
 30
0.0
 10
75.1246952532359
 20
57.69968178629407
 30
0.0
 10
75.21035327844735
 20
57.61705590356797
 30
0.0
  0
SPLINE
  5
1C8C
330
A
100
AcDbEntity
  8
0
370
    13
100
AcDbSpline
210
0.0
220
0.0
230
1.0
 70
     8
 71
     3
 72
    11
 73
     7
 74
     0
 42
0.0000000001
 43
0.0000000001
 40
0.0
 40
0.0
 40
0.0
 40
0.0
 40
1.0
 40
1.0
 40
1.0
 40
2.0
 40
2.0
 40
2.0
 40
2.0
 10
74.83512564588385
 20
54.63873394732148
 30
0.0
 10
74.23514045159291
 20
54.29761791771831
 30
0.0
 10
74.02554360229228
 20
53.53351801140718
 30
0.0
 10
74.36779668532749
 20
52.93315379930555
 30
0.0
 10
74.42692346379203
 20
52.83006095480327
 30
0.0
 10
74.5000739012514
 20
52.73606453775705
 30
0.0
 10
74.58535290865218
 20
52.65419669065227
 30
0.0
  0
SPLINE
  5
1C8D
330
A
100
AcDbEntity
  8
0
370
    13
100
AcDbSpline
210
0.0
220
0.0
230
1.0
 70
     8
 71
     3
 72
    11
 73
     7
 74
     0
 42
0.0000000001
 43
0.0000000001
 40
0.0
 40
0.0
 40
0.0
 40
0.0
 40
1.0
 40
1.0
 40
1.0
 40
2.0
 40
2.0
 40
2.0
 40
2.0
 10
74.20974625827802
 20
49.6758747344058
 30
0.0
 10
73.60976106398706
 20
49.33324263355993
 30
0.0
 10
73.4009222503078
 20
48.56914272724879
 30
0.0
 10
73.74317533334298
 20
47.96953655076852
 30
0.0
 10
73.80116505837553
 20
47.86720174188757
 30
0.0
 10
73.87431549583488
 20
47.77320532484137
 30
0.0
 10
73.95959450323568
 20
47.68982140649391
 30
0.0
  0
SPLINE
  5
1C8E
330
A
100
AcDbEntity
  8
0
370
    13
100
AcDbSpline
210
0.0
220
0.0
230
1.0
 70
     8
 71
     3
 72
    11
 73
     7
 74
     0
 42
0.0000000001
 43
0.0000000001
 40
0.0
 40
0.0
 40
0.0
 40
0.0
 40
1.0
 40
1.0
 40
1.0
 40
2.0
 40
2.0
 40
2.0
 40
2.0
 10
73.58474588848284
 20
44.71225748586875
 30
0.0
 10
72.98476069419191
 20
44.37038342064424
 30
0.0
 10
72.77516384489128
 20
43.60628351433309
 30
0.0
 10
73.11741692792647
 20
43.00591930223149
 30
0.0
 10
73.17654370639104
 20
42.90282645772918
 30
0.0
 10
73.24931512603969
 20
42.80883004068297
 30
0.0
 10
73.33497315125118
 20
42.72696219357821
 30
0.0
  0
SPLINE
  5
1C8F
330
A
100
AcDbEntity
  8
0
370
    13
100
AcDbSpline
210
0.0
220
0.0
230
1.0
 70
     8
 71
     3
 72
    11
 73
     7
 74
     0
 42
0.0000000001
 43
0.0000000001
 40
0.0
 40
0.0
 40
0.0
 40
0.0
 40
1.0
 40
1.0
 40
1.0
 40
2.0
 40
2.0
 40
2.0
 40
2.0
 10
72.95974551868766
 20
39.74864023733172
 30
0.0
 10
72.35976032439673
 20
39.40600813648585
 30
0.0
 10
72.1501634750961
 20
38.64266626579606
 30
0.0
 10
72.49279557594198
 20
38.04230205369444
 30
0.0
 10
72.55154333659586
 20
37.93996724481349
 30
0.0
 10
72.6246937740552
 20
37.84597082776729
 30
0.0
 10
72.70921474583467
 20
37.76334494504117
 30
0.0
  0
SPLINE
  5
1C90
330
A
100
AcDbEntity
  8
0
370
    13
100
AcDbSpline
210
0.0
220
0.0
230
1.0
 70
     8
 71
     3
 72
    11
 73
     7
 74
     0
 42
0.0000000001
 43
0.0000000001
 40
0.0
 40
0.0
 40
0.0
 40
0.0
 40
1.0
 40
1.0
 40
1.0
 40
2.0
 40
2.0
 40
2.0
 40
2.0
 10
72.33436613108183
 20
34.78502298879468
 30
0.0
 10
71.73438093679088
 20
34.44390695919151
 30
0.0
 10
71.52554212311162
 20
33.67904901725902
 30
0.0
 10
71.86779520614679
 20
33.07944284077875
 30
0.0
 10
71.92578493117934
 20
32.97559196065511
 30
0.0
 10
71.9989353686387
 20
32.88159554360891
 30
0.0
 10
72.08421437603949
 20
32.79972769650415
 30
0.0
  0
SPLINE
  5
1C91
330
A
100
AcDbEntity
  8
0
370
    13
100
AcDbSpline
210
0.0
220
0.0
230
1.0
 70
     8
 71
     3
 72
     8
 73
     4
 74
     0
 42
0.0000000001
 43
0.0000000001
 40
0.0
 40
0.0
 40
0.0
 40
0.0
 40
1.0
 40
1.0
 40
1.0
 40
1.0
 10
68.44753848265885
 20
17.98024493242477
 30
0.0
 10
69.45610487685228
 20
17.98024493242477
 30
0.0
 10
70.30662084399622
 20
18.73145823317312
 30
0.0
 10
70.43321279276007
 20
19.73130721772111
 30
0.0
  0
SPLINE
  5
1C92
330
A
100
AcDbEntity
  8
0
370
    13
100
AcDbSpline
210
0.0
220
0.0
230
1.0
 70
     8
 71
     3
 72
     8
 73
     4
 74
     0
 42
0.0000000001
 43
0.0000000001
 40
0.0
 40
0.0
 40
0.0
 40
0.0
 40
1.0
 40
1.0
 40
1.0
 40
1.0
 10
57.07510907349929
 20
17.98024493242477
 30
0.0
 10
56.99589435106922
 20
17.98024493242477
 30
0.0
 10
56.91895373550315
 20
17.94916547194981
 30
0.0
 10
56.86323811733463
 20
17.89307083597062
 30
0.0
  0
SPLINE
  5
1C93
330
A
100
AcDbEntity
  8
0
370
    13
100
AcDbSpline
210
0.0
220
0.0
230
1.0
 70
     8
 71
     3
 72
     8
 73
     4
 74
     0
 42
0.0000000001
 43
0.0000000001
 40
0.0
 40
0.0
 40
0.0
 40
0.0
 40
1.0
 40
1.0
 40
1.0
 40
1.0
 10
56.3091140781348
 20
17.62169408353075
 30
0.0
 10
56.38757076494352
 20
17.54437445015403
 30
0.0
 10
56.51378369589671
 20
17.54437445015403
 30
0.0
 10
56.59224038270544
 20
17.62169408353075
 30
0.0
  0
SPLINE
  5
1C94
330
A
100
AcDbEntity
  8
0
370
    13
100
AcDbSpline
210
0.0
220
0.0
230
1.0
 70
     8
 71
     3
 72
     8
 73
     4
 74
     0
 42
0.0000000001
 43
0.0000000001
 40
0.0
 40
0.0
 40
0.0
 40
0.0
 40
1.0
 40
1.0
 40
1.0
 40
1.0
 10
56.0381163435056
 20
17.89307083597062
 30
0.0
 10
55.98240072533707
 20
17.94916547194981
 30
0.0
 10
55.90546010977101
 20
17.98024493242477
 30
0.0
 10
55.82624538734094
 20
17.98024493242477
 30
0.0
  0
SPLINE
  5
1C95
330
A
100
AcDbEntity
  8
0
370
    13
100
AcDbSpline
210
0.0
220
0.0
230
1.0
 70
     8
 71
     3
 72
    11
 73
     7
 74
     0
 42
0.0000000001
 43
0.0000000001
 40
0.0
 40
0.0
 40
0.0
 40
0.0
 40
1.0
 40
1.0
 40
1.0
 40
2.0
 40
2.0
 40
2.0
 40
2.0
 10
40.18455935879217
 20
20.38473392331655
 30
0.0
 10
39.96169688611807
 20
19.30150102042112
 30
0.0
 10
40.65946867556192
 20
18.2432832930299
 30
0.0
 10
41.74232256064671
 20
18.0219368915985
 30
0.0
 10
41.87422075875995
 20
17.99464760923023
 30
0.0
 10
42.00915109935855
 20
17.98024493242477
 30
0.0
 10
42.14446045776781
 20
17.98024493242477
 30
0.0
  0
SPLINE
  5
1C96
330
A
100
AcDbEntity
  8
0
370
    13
100
AcDbSpline
210
0.0
220
0.0
230
1.0
 70
     8
 71
     3
 72
     8
 73
     4
 74
     0
 42
0.0000000001
 43
0.0000000001
 40
0.0
 40
0.0
 40
0.0
 40
0.0
 40
1.0
 40
1.0
 40
1.0
 40
1.0
 10
40.18455935879217
 20
20.38473392331655
 30
0.0
 10
45.17394981845479
 20
44.64479231556945
 30
0.0
 10
45.08791277543264
 20
69.71757852702499
 30
0.0
 10
39.93137546126446
 20
93.9880979798597
 30
0.0
  0
SPLINE
  5
1C97
330
A
100
AcDbEntity
  8
0
370
    13
100
AcDbSpline
210
0.0
220
0.0
230
1.0
 70
     8
 71
     3
 72
     8
 73
     4
 74
     0
 42
0.0000000001
 43
0.0000000001
 40
0.0
 40
0.0
 40
0.0
 40
0.0
 40
1.0
 40
1.0
 40
1.0
 40
1.0
 10
39.93137546126446
 20
93.9880979798597
 30
0.0
 10
39.83358886611155
 20
94.45049970887737
 30
0.0
 10
39.42538668401974
 20
94.78024520416044
 30
0.0
 10
38.95237245630332
 20
94.78024520416044
 30
0.0
  0
SPLINE
  5
1C98
330
A
100
AcDbEntity
  8
0
370
    13
100
AcDbSpline
210
0.0
220
0.0
230
1.0
 70
     8
 71
     3
 72
     8
 73
     4
 74
     0
 42
0.0000000001
 43
0.0000000001
 40
0.0
 40
0.0
 40
0.0
 40
0.0
 40
1.0
 40
1.0
 40
1.0
 40
1.0
 10
37.8930176754801
 20
94.78024520416044
 30
0.0
 10
37.78272349257505
 20
94.78024520416044
 30
0.0
 10
37.69289627144621
 20
94.69079700084227
 30
0.0
 10
37.69289627144621
 20
94.5808818357479
 30
0.0
  0
SPLINE
  5
1C99
330
A
100
AcDbEntity
  8
0
370
    13
100
AcDbSpline
210
0.0
220
0.0
230
1.0
 70
     8
 71
     3
 72
     8
 73
     4
 74
     0
 42
0.0000000001
 43
0.0000000001
 40
0.0
 40
0.0
 40
0.0
 40
0.0
 40
1.0
 40
1.0
 40
1.0
 40
1.0
 10
37.69289627144621
 20
93.78039621961242
 30
0.0
 10
37.69289627144621
 20
93.66972301889674
 30
0.0
 10
37.78272349257505
 20
93.58027481557854
 30
0.0
 10
37.8930176754801
 20
93.58027481557854
 30
0.0
  0
SPLINE
  5
1C9A
330
A
100
AcDbEntity
  8
0
370
    13
100
AcDbSpline
210
0.0
220
0.0
230
1.0
 70
     8
 71
     3
 72
     8
 73
     4
 74
     0
 42
0.0000000001
 43
0.0000000001
 40
0.0
 40
0.0
 40
0.0
 40
0.0
 40
1.0
 40
1.0
 40
1.0
 40
1.0
 10
38.5172600096539
 20
93.3801534115447
 30
0.0
 10
38.5172600096539
 20
93.49006857663907
 30
0.0
 10
38.42705377071441
 20
93.58027481557854
 30
0.0
 10
38.31675958780938
 20
93.58027481557854
 30
0.0
  0
SPLINE
  5
1C9B
330
A
100
AcDbEntity
  8
0
370
    13
100
AcDbSpline
210
0.0
220
0.0
230
1.0
 70
     8
 71
     3
 72
     8
 73
     4
 74
     0
 42
0.0000000001
 43
0.0000000001
 40
0.0
 40
0.0
 40
0.0
 40
0.0
 40
1.0
 40
1.0
 40
1.0
 40
1.0
 10
38.5172600096539
 20
92.60240886404941
 30
0.0
 10
38.5172600096539
 20
92.58724815162262
 30
0.0
 10
38.51877608089661
 20
92.57208743919582
 30
0.0
 10
38.52256625900331
 20
92.55844279801168
 30
0.0
  0
SPLINE
  5
1C9C
330
A
100
AcDbEntity
  8
0
370
    13
100
AcDbSpline
210
0.0
220
0.0
230
1.0
 70
     8
 71
     3
 72
    11
 73
     7
 74
     0
 42
0.0000000001
 43
0.0000000001
 40
0.0
 40
0.0
 40
0.0
 40
0.0
 40
1.0
 40
1.0
 40
1.0
 40
2.0
 40
2.0
 40
2.0
 40
2.0
 10
38.45093189278664
 20
91.7784241436524
 30
0.0
 10
38.56198411131299
 20
91.7784241436524
 30
0.0
 10
38.65143231463116
 20
91.8686303825919
 30
0.0
 10
38.65143231463116
 20
91.9793035833076
 30
0.0
 10
38.65143231463116
 20
91.99446429573445
 30
0.0
 10
38.64991624338848
 20
92.01038304378256
 30
0.0
 10
38.64574704747113
 20
92.02478572058803
 30
0.0
  0
SPLINE
  5
1C9D
330
A
100
AcDbEntity
  8
0
370
    13
100
AcDbSpline
210
0.0
220
0.0
230
1.0
 70
     8
 71
     3
 72
     8
 73
     4
 74
     0
 42
0.0000000001
 43
0.0000000001
 40
0.0
 40
0.0
 40
0.0
 40
0.0
 40
1.0
 40
1.0
 40
1.0
 40
1.0
 10
37.99307837749703
 20
91.7784241436524
 30
0.0
 10
37.88202615897064
 20
91.7784241436524
 30
0.0
 10
37.79295697346316
 20
91.68973397595559
 30
0.0
 10
37.79295697346316
 20
91.57906077523987
 30
0.0
  0
SPLINE
  5
1C9E
330
A
100
AcDbEntity
  8
0
370
    13
100
AcDbSpline
210
0.0
220
0.0
230
1.0
 70
     8
 71
     3
 72
     8
 73
     4
 74
     0
 42
0.0000000001
 43
0.0000000001
 40
0.0
 40
0.0
 40
0.0
 40
0.0
 40
1.0
 40
1.0
 40
1.0
 40
1.0
 10
37.79295697346316
 20
90.97869656313827
 30
0.0
 10
37.79295697346316
 20
90.86802336242257
 30
0.0
 10
37.88202615897064
 20
90.78009123034705
 30
0.0
 10
37.99307837749703
 20
90.78009123034705
 30
0.0
  0
SPLINE
  5
1C9F
330
A
100
AcDbEntity
  8
0
370
    13
100
AcDbSpline
210
0.0
220
0.0
230
1.0
 70
     8
 71
     3
 72
     8
 73
     4
 74
     0
 42
0.0000000001
 43
0.0000000001
 40
0.0
 40
0.0
 40
0.0
 40
0.0
 40
1.0
 40
1.0
 40
1.0
 40
1.0
 10
38.9728394180795
 20
90.62469392797229
 30
0.0
 10
38.95161442068197
 20
90.71490016691178
 30
0.0
 10
38.87088362700922
 20
90.78009123034705
 30
0.0
 10
38.77802426339504
 20
90.78009123034705
 30
0.0
  0
SPLINE
  5
1CA0
330
A
100
AcDbEntity
  8
0
370
    13
100
AcDbSpline
210
0.0
220
0.0
230
1.0
 70
     8
 71
     3
 72
    11
 73
     7
 74
     0
 42
0.0000000001
 43
0.0000000001
 40
0.0
 40
0.0
 40
0.0
 40
0.0
 40
1.0
 40
1.0
 40
1.0
 40
2.0
 40
2.0
 40
2.0
 40
2.0
 10
39.38483177827802
 20
87.77751213421771
 30
0.0
 10
39.49512596118306
 20
87.77751213421771
 30
0.0
 10
39.58457416450121
 20
87.86620230191454
 30
0.0
 10
39.58457416450121
 20
87.97687550263024
 30
0.0
 10
39.58457416450121
 20
87.99203621505704
 30
0.0
 10
39.58267907544788
 20
88.00795496310518
 30
0.0
 10
39.57964693296252
 20
88.02235763991062
 30
0.0
  0
SPLINE
  5
1CA1
330
A
100
AcDbEntity
  8
0
370
    13
100
AcDbSpline
210
0.0
220
0.0
230
1.0
 70
     8
 71
     3
 72
     8
 73
     4
 74
     0
 42
0.0000000001
 43
0.0000000001
 40
0.0
 40
0.0
 40
0.0
 40
0.0
 40
1.0
 40
1.0
 40
1.0
 40
1.0
 10
34.36739400062583
 20
87.97687550263024
 30
0.0
 10
34.36739400062583
 20
87.86620230191454
 30
0.0
 10
34.4564631861333
 20
87.77751213421771
 30
0.0
 10
34.56751540465972
 20
87.77751213421771
 30
0.0
  0
SPLINE
  5
1CA2
330
A
100
AcDbEntity
  8
0
370
    13
100
AcDbSpline
210
0.0
220
0.0
230
1.0
 70
     8
 71
     3
 72
     8
 73
     4
 74
     0
 42
0.0000000001
 43
0.0000000001
 40
0.0
 40
0.0
 40
0.0
 40
0.0
 40
1.0
 40
1.0
 40
1.0
 40
1.0
 10
34.56751540465972
 20
90.78009123034705
 30
0.0
 10
34.4564631861333
 20
90.78009123034705
 30
0.0
 10
34.36739400062583
 20
90.68912695578623
 30
0.0
 10
34.36739400062583
 20
90.57845375507051
 30
0.0
  0
SPLINE
  5
1CA3
330
A
100
AcDbEntity
  8
0
370
    13
100
AcDbSpline
210
0.0
220
0.0
230
1.0
 70
     8
 71
     3
 72
     8
 73
     4
 74
     0
 42
0.0000000001
 43
0.0000000001
 40
0.0
 40
0.0
 40
0.0
 40
0.0
 40
1.0
 40
1.0
 40
1.0
 40
1.0
 10
34.89119661497204
 20
90.78009123034705
 30
0.0
 10
35.00149079787707
 20
90.78009123034705
 30
0.0
 10
35.09169703681661
 20
90.86802336242257
 30
0.0
 10
35.09169703681661
 20
90.97869656313827
 30
0.0
  0
SPLINE
  5
1CA4
330
A
100
AcDbEntity
  8
0
370
    13
100
AcDbSpline
210
0.0
220
0.0
230
1.0
 70
     8
 71
     3
 72
     8
 73
     4
 74
     0
 42
0.0000000001
 43
0.0000000001
 40
0.0
 40
0.0
 40
0.0
 40
0.0
 40
1.0
 40
1.0
 40
1.0
 40
1.0
 10
35.09169703681661
 20
91.57906077523987
 30
0.0
 10
35.09169703681661
 20
91.68973397595559
 30
0.0
 10
35.00149079787707
 20
91.7784241436524
 30
0.0
 10
34.89119661497204
 20
91.7784241436524
 30
0.0
  0
SPLINE
  5
1CA5
330
A
100
AcDbEntity
  8
0
370
    13
100
AcDbSpline
210
0.0
220
0.0
230
1.0
 70
     8
 71
     3
 72
     8
 73
     4
 74
     0
 42
0.0000000001
 43
0.0000000001
 40
0.0
 40
0.0
 40
0.0
 40
0.0
 40
1.0
 40
1.0
 40
1.0
 40
1.0
 10
34.36739400062583
 20
91.9793035833076
 30
0.0
 10
34.36739400062583
 20
91.8686303825919
 30
0.0
 10
34.4564631861333
 20
91.7784241436524
 30
0.0
 10
34.56751540465972
 20
91.7784241436524
 30
0.0
  0
SPLINE
  5
1CA6
330
A
100
AcDbEntity
  8
0
370
    13
100
AcDbSpline
210
0.0
220
0.0
230
1.0
 70
     8
 71
     3
 72
     8
 73
     4
 74
     0
 42
0.0000000001
 43
0.0000000001
 40
0.0
 40
0.0
 40
0.0
 40
0.0
 40
1.0
 40
1.0
 40
1.0
 40
1.0
 10
34.56751540465972
 20
93.58027481557854
 30
0.0
 10
34.4564631861333
 20
93.58027481557854
 30
0.0
 10
34.36739400062583
 20
93.49006857663907
 30
0.0
 10
34.36739400062583
 20
93.3801534115447
 30
0.0
  0
SPLINE
  5
1CA7
330
A
100
AcDbEntity
  8
0
370
    13
100
AcDbSpline
210
0.0
220
0.0
230
1.0
 70
     8
 71
     3
 72
     8
 73
     4
 74
     0
 42
0.0000000001
 43
0.0000000001
 40
0.0
 40
0.0
 40
0.0
 40
0.0
 40
1.0
 40
1.0
 40
1.0
 40
1.0
 10
34.99163633479966
 20
93.58027481557854
 30
0.0
 10
35.10155149989401
 20
93.58027481557854
 30
0.0
 10
35.1917577388335
 20
93.66972301889674
 30
0.0
 10
35.1917577388335
 20
93.78039621961242
 30
0.0
  0
SPLINE
  5
1CA8
330
A
100
AcDbEntity
  8
0
370
    13
100
AcDbSpline
210
0.0
220
0.0
230
1.0
 70
     8
 71
     3
 72
     8
 73
     4
 74
     0
 42
0.0000000001
 43
0.0000000001
 40
0.0
 40
0.0
 40
0.0
 40
0.0
 40
1.0
 40
1.0
 40
1.0
 40
1.0
 10
35.1917577388335
 20
94.5808818357479
 30
0.0
 10
35.1917577388335
 20
94.69079700084227
 30
0.0
 10
35.10155149989401
 20
94.78024520416044
 30
0.0
 10
34.99163633479966
 20
94.78024520416044
 30
0.0
  0
SPLINE
  5
1CA9
330
A
100
AcDbEntity
  8
0
370
    13
100
AcDbSpline
210
0.0
220
0.0
230
1.0
 70
     8
 71
     3
 72
     8
 73
     4
 74
     0
 42
0.0000000001
 43
0.0000000001
 40
0.0
 40
0.0
 40
0.0
 40
0.0
 40
1.0
 40
1.0
 40
1.0
 40
1.0
 10
33.86746950835183
 20
94.78024520416044
 30
0.0
 10
33.31486154039467
 20
94.78024520416044
 30
0.0
 10
32.8661044525611
 20
94.33224615194827
 30
0.0
 10
32.8661044525611
 20
93.78039621961242
 30
0.0
  0
SPLINE
  5
1CAA
330
A
100
AcDbEntity
  8
0
370
    13
100
AcDbSpline
210
0.0
220
0.0
230
1.0
 70
     8
 71
     3
 72
     8
 73
     4
 74
     0
 42
0.0000000001
 43
0.0000000001
 40
0.0
 40
0.0
 40
0.0
 40
0.0
 40
1.0
 40
1.0
 40
1.0
 40
1.0
 10
32.8661044525611
 20
4.978359005717708
 30
0.0
 10
32.8661044525611
 20
4.868443840623333
 30
0.0
 10
32.95631069150064
 20
4.778995637305159
 30
0.0
 10
33.06622585659499
 20
4.778995637305159
 30
0.0
  0
SPLINE
  5
1CAB
330
A
100
AcDbEntity
  8
0
370
    13
100
AcDbSpline
210
0.0
220
0.0
230
1.0
 70
     8
 71
     3
 72
     8
 73
     4
 74
     0
 42
0.0000000001
 43
0.0000000001
 40
0.0
 40
0.0
 40
0.0
 40
0.0
 40
1.0
 40
1.0
 40
1.0
 40
1.0
 10
40.7883347311898
 20
4.778995637305159
 30
0.0
 10
40.84101820687296
 20
4.778995637305159
 30
0.0
 10
40.89218561131343
 20
4.800220634702706
 30
0.0
 10
40.9297083745698
 20
4.837364380148382
 30
0.0
  0
SPLINE
  5
1CAC
330
A
100
AcDbEntity
  8
0
370
    13
100
AcDbSpline
210
0.0
220
0.0
230
1.0
 70
     8
 71
     3
 72
     8
 73
     4
 74
     0
 42
0.0000000001
 43
0.0000000001
 40
0.0
 40
0.0
 40
0.0
 40
0.0
 40
1.0
 40
1.0
 40
1.0
 40
1.0
 10
41.95419351681137
 20
5.778844621853182
 30
0.0
 10
41.90151004112822
 20
5.778844621853182
 30
0.0
 10
41.85034263668774
 20
5.757619624455649
 30
0.0
 10
41.81281987343136
 20
5.721233914631307
 30
0.0
  0
SPLINE
  5
1CAD
330
A
100
AcDbEntity
  8
0
370
    13
100
AcDbSpline
210
0.0
220
0.0
230
1.0
 70
     8
 71
     3
 72
     8
 73
     4
 74
     0
 42
0.0000000001
 43
0.0000000001
 40
0.0
 40
0.0
 40
0.0
 40
0.0
 40
1.0
 40
1.0
 40
1.0
 40
1.0
 10
65.56472901470126
 20
5.721233914631307
 30
0.0
 10
65.52758526925557
 20
5.757619624455649
 30
0.0
 10
65.47641786481509
 20
5.778844621853182
 30
0.0
 10
65.42335537132126
 20
5.778844621853182
 30
0.0
  0
SPLINE
  5
1CAE
330
A
100
AcDbEntity
  8
0
370
    13
100
AcDbSpline
210
0.0
220
0.0
230
1.0
 70
     8
 71
     3
 72
     8
 73
     4
 74
     0
 42
0.0000000001
 43
0.0000000001
 40
0.0
 40
0.0
 40
0.0
 40
0.0
 40
1.0
 40
1.0
 40
1.0
 40
1.0
 10
66.44821953137351
 20
4.837364380148382
 30
0.0
 10
66.48536327681918
 20
4.800220634702706
 30
0.0
 10
66.53653068125966
 20
4.778995637305159
 30
0.0
 10
66.58921415694281
 20
4.778995637305159
 30
0.0
  0
SPLINE
  5
1CAF
330
A
100
AcDbEntity
  8
0
370
    13
100
AcDbSpline
210
0.0
220
0.0
230
1.0
 70
     8
 71
     3
 72
     8
 73
     4
 74
     0
 42
0.0000000001
 43
0.0000000001
 40
0.0
 40
0.0
 40
0.0
 40
0.0
 40
1.0
 40
1.0
 40
1.0
 40
1.0
 10
83.86598302072288
 20
4.778995637305159
 30
0.0
 10
83.97627720362791
 20
4.778995637305159
 30
0.0
 10
84.06610442475674
 20
4.868443840623333
 30
0.0
 10
84.06610442475674
 20
4.978359005717708
 30
0.0
  0
SPLINE
  5
1CB0
330
A
100
AcDbEntity
  8
0
370
    13
100
AcDbSpline
210
0.0
220
0.0
230
1.0
 70
     8
 71
     3
 72
    11
 73
     7
 74
     0
 42
0.0000000001
 43
0.0000000001
 40
0.0
 40
0.0
 40
0.0
 40
0.0
 40
1.0
 40
1.0
 40
1.0
 40
2.0
 40
2.0
 40
2.0
 40
2.0
 10
34.86807652852116
 20
69.83962226206081
 30
0.0
 10
34.86807652852116
 20
69.28701429410364
 30
0.0
 10
35.31607558073335
 20
68.83901524189146
 30
0.0
 10
35.86792551306916
 20
68.83901524189146
 30
0.0
 10
35.98504201656627
 20
68.83901524189146
 30
0.0
 10
36.10064244882067
 20
68.85948220366765
 30
0.0
 10
36.21017859610437
 20
68.89890005597735
 30
0.0
  0
SPLINE
  5
1CB1
330
A
100
AcDbEntity
  8
0
370
    13
100
AcDbSpline
210
0.0
220
0.0
230
1.0
 70
     8
 71
     3
 72
     8
 73
     4
 74
     0
 42
0.0000000001
 43
0.0000000001
 40
0.0
 40
0.0
 40
0.0
 40
0.0
 40
1.0
 40
1.0
 40
1.0
 40
1.0
 10
35.86792551306916
 20
86.27584356834232
 30
0.0
 10
35.31607558073335
 20
86.27584356834232
 30
0.0
 10
34.86807652852116
 20
85.82784451613015
 30
0.0
 10
34.86807652852116
 20
85.27523654817299
 30
0.0
  0
SPLINE
  5
1CB2
330
A
100
AcDbEntity
  8
0
370
    13
100
AcDbSpline
210
0.0
220
0.0
230
1.0
 70
     8
 71
     3
 72
     8
 73
     4
 74
     0
 42
0.0000000001
 43
0.0000000001
 40
0.0
 40
0.0
 40
0.0
 40
0.0
 40
1.0
 40
1.0
 40
1.0
 40
1.0
 10
39.50611747769249
 20
85.43745617113982
 30
0.0
 10
39.42614471964109
 20
85.92108289755502
 30
0.0
 10
39.00846709228251
 20
86.27584356834232
 30
0.0
 10
38.51877608089661
 20
86.27584356834232
 30
0.0
  0
SPLINE
  5
1CB3
330
A
100
AcDbEntity
  8
0
370
    13
100
AcDbSpline
210
0.0
220
0.0
230
1.0
 70
     8
 71
     3
 72
     8
 73
     4
 74
     0
 42
0.0000000001
 43
0.0000000001
 40
0.0
 40
0.0
 40
0.0
 40
0.0
 40
1.0
 40
1.0
 40
1.0
 40
1.0
 10
41.23405967653797
 20
71.51336491398042
 30
0.0
 10
40.84026017125163
 20
76.17528398522401
 30
0.0
 10
40.26453211684358
 20
80.82052627279805
 30
0.0
 10
39.50611747769249
 20
85.43745617113982
 30
0.0
  0
SPLINE
  5
1CB4
330
A
100
AcDbEntity
  8
0
370
    13
100
AcDbSpline
210
0.0
220
0.0
230
1.0
 70
     8
 71
     3
 72
     8
 73
     4
 74
     0
 42
0.0000000001
 43
0.0000000001
 40
0.0
 40
0.0
 40
0.0
 40
0.0
 40
1.0
 40
1.0
 40
1.0
 40
1.0
 10
40.57873788188918
 20
70.48925878954955
 30
0.0
 10
41.0032378298398
 20
70.64314002068165
 30
0.0
 10
41.27120342198366
 20
71.06309175490423
 30
0.0
 10
41.23405967653797
 20
71.51336491398042
 30
0.0
  0
LINE
  5
1CB5
102
{ACAD_REACTORS
330
1DE6
102
}
330
A
100
AcDbEntity
  8
0
370
    13
100
AcDbLine
 10
60.4506787014038
 20
5.778844621853181
 30
0.0
 11
60.4506787014038
 21
-31.45087721643921
 31
0.0
  0
LINE
  5
1CB6
102
{ACAD_REACTORS
330
1DE6
102
}
330
A
100
AcDbEntity
  8
0
370
    13
100
AcDbLine
 10
52.4506787014038
 20
5.778844621853181
 30
0.0
 11
52.4506787014038
 21
-36.06967936995625
 31
0.0
  0
DIMENSION
  5
1CB7
330
A
100
AcDbEntity
  8
寸法
370
    13
100
AcDbDimension
  2
*D1
 10
84.06610442475676
 20
-10.22100406972608
 30
0.0
 11
58.46610443865893
 21
-8.221004069726088
 31
0.0
 70
    32
 71
     5
 42
51.19999997219565
  3
ISO-25 1／10
100
AcDbAlignedDimension
 13
32.8661044525611
 23
4.978359005717708
 33
0.0
 14
84.06610442475676
 24
4.978359005717886
 34
0.0
100
AcDbRotatedDimension
1001
ACAD
1000
DSTYLE
1002
{
1070
   279
1070
     1
1002
}
  0
LINE
  5
1CB8
330
A
100
AcDbEntity
  8
0
370
    13
100
AcDbLine
 10
66.83860787636382
 20
9.280969192445891
 30
0.0
 11
40.10307052949807
 21
9.280969192445891
 31
0.0
  0
LINE
  5
1CB9
330
A
100
AcDbEntity
  8
0
370
    13
100
AcDbLine
 10
40.58897136277728
 20
15.17805371157193
 30
0.0
 11
66.67259807529027
 21
15.17805371157193
 31
0.0
  0
LINE
  5
1CBA
330
A
100
AcDbEntity
  8
0
370
    13
100
AcDbLine
 10
55.82624538734098
 20
17.98024493242477
 30
0.0
 11
42.14446045776781
 21
17.98024493242477
 31
0.0
  0
LINE
  5
1CBB
330
A
100
AcDbEntity
  8
0
370
    13
100
AcDbLine
 10
41.95419351681137
 20
5.778844621853181
 30
0.0
 11
65.42335537132126
 21
5.778844621853181
 31
0.0
  0
DIMENSION
  5
1CBC
330
A
100
AcDbEntity
  8
寸法
370
    13
100
AcDbDimension
  2
*D4
 10
27.8661044525611
 20
4.780244922761264
 30
0.0
 11
25.8661044525611
 21
49.78024506346086
 31
0.0
 70
    32
 71
     5
 42
90.00000028139918
  3
ISO-25 1／10
100
AcDbAlignedDimension
 13
33.8674695083518
 23
94.78024520416044
 33
0.0
 14
33.08878049437203
 24
4.780244922761263
 34
0.0
 50
270.0
100
AcDbRotatedDimension
1001
ACAD
1000
DSTYLE
1002
{
1070
   279
1070
     1
1002
}
  0
LINE
  5
1CBD
330
A
100
AcDbEntity
  8
0
370
    13
100
AcDbLine
 10
35.0674398969337
 20
40.85537224448873
 30
0.0
 11
35.0674398969337
 21
64.95256661127917
 31
0.0
  0
LINE
  5
1CBE
330
A
100
AcDbEntity
  8
0
370
    13
100
AcDbLine
 10
32.8661044525611
 20
93.78039621961242
 30
0.0
 11
32.8661044525611
 21
4.978359005717706
 31
0.0
  0
LINE
  5
1CBF
330
A
100
AcDbEntity
  8
0
370
    13
100
AcDbLine
 10
35.0674398969337
 20
22.70534743148225
 30
0.0
 11
35.0674398969337
 21
34.67965603742837
 31
0.0
  0
LINE
  5
1CC0
330
A
100
AcDbEntity
  8
0
370
    13
100
AcDbLine
 10
33.06622585659499
 20
4.778995637305165
 30
0.0
 11
40.7883347311898
 21
4.778995637305165
 31
0.0
  0
LINE
  5
1CC1
330
A
100
AcDbEntity
  8
0
370
    13
100
AcDbLine
 10
40.9297083745698
 20
4.83736438014839
 30
0.0
 11
41.81281987343139
 21
5.721233914631305
 31
0.0
  0
LINE
  5
1CC2
330
A
100
AcDbEntity
  8
0
370
    13
100
AcDbLine
 10
38.16401541010928
 20
11.72861153010463
 30
0.0
 11
38.65067427900985
 21
13.67259496758988
 31
0.0
  0
LINE
  5
1CC3
330
A
100
AcDbEntity
  8
0
370
    13
100
AcDbLine
 10
37.75316010334279
 20
36.56034241397394
 30
0.0
 11
37.88354223021333
 21
36.51334420545084
 31
0.0
  0
LINE
  5
1CC4
330
A
100
AcDbEntity
  8
0
370
    13
100
AcDbLine
 10
36.99095528608501
 20
38.75409750213309
 30
0.0
 11
36.38490580682334
 21
38.97544390356449
 31
0.0
  0
LINE
  5
1CC5
102
{ACAD_REACTORS
330
1DE8
102
}
330
A
100
AcDbEntity
  8
0
370
    13
100
AcDbLine
 10
37.6675310400555
 20
89.52866633166861
 30
0.0
 11
37.6675310400555
 21
92.16513973119191
 31
0.0
  0
LINE
  5
1CC6
102
{ACAD_REACTORS
330
1DE8
102
}
330
A
100
AcDbEntity
  8
0
370
    13
100
AcDbLine
 10
35.21712297022423
 20
92.00833202401327
 30
0.0
 11
35.21712297022423
 21
89.52866633166861
 31
0.0
  0
LINE
  5
1CC7
330
A
100
AcDbEntity
  8
0
370
    13
100
AcDbLine
 10
38.97283941807951
 20
90.62469392797231
 30
0.0
 11
39.57964693296253
 21
88.02235763991065
 31
0.0
  0
LINE
  5
1CC8
330
A
100
AcDbEntity
  8
0
370
    13
100
AcDbLine
 10
34.36739400062583
 20
87.97687550263026
 30
0.0
 11
34.36739400062583
 21
90.57845375507053
 31
0.0
  0
LINE
  5
1CC9
330
A
100
AcDbEntity
  8
0
370
    13
100
AcDbLine
 10
34.86807652852118
 20
69.83962226206083
 30
0.0
 11
34.86807652852118
 21
85.27523654817299
 31
0.0
  0
LINE
  5
1CCA
330
A
100
AcDbEntity
  8
0
370
    13
100
AcDbLine
 10
36.38490580682334
 20
66.83325298782474
 30
0.0
 11
38.73443721516796
 21
67.68831716869673
 31
0.0
  0
LINE
  5
1CCB
330
A
100
AcDbEntity
  8
0
370
    13
100
AcDbLine
 10
40.57873788188918
 20
70.48925878954957
 30
0.0
 11
36.21017859610437
 21
68.89890005597736
 31
0.0
  0
LINE
  5
1CCC
330
A
100
AcDbEntity
  8
0
370
    13
100
AcDbLine
 10
39.38483177827802
 20
87.77751213421769
 30
0.0
 11
34.56751540465972
 21
87.77751213421769
 31
0.0
  0
LINE
  5
1CCD
330
A
100
AcDbEntity
  8
0
370
    13
100
AcDbLine
 10
35.86792551306918
 20
86.27584356834233
 30
0.0
 11
38.51877608089661
 21
86.27584356834233
 31
0.0
  0
LINE
  5
1CCE
102
{ACAD_REACTORS
330
1DE8
102
}
330
A
100
AcDbEntity
  8
0
370
    13
100
AcDbLine
 10
35.21712297022423
 20
89.52866633166861
 30
0.0
 11
34.77595747120176
 21
89.65325778034928
 31
0.0
  0
LINE
  5
1CCF
102
{ACAD_REACTORS
330
1DE8
102
}
330
A
100
AcDbEntity
  8
0
370
    13
100
AcDbLine
 10
34.62046471334957
 20
89.05824321013273
 30
0.0
 11
35.21712297022423
 21
88.89058717101091
 31
0.0
  0
LINE
  5
1CD0
102
{ACAD_REACTORS
330
1DE8
102
}
330
A
100
AcDbEntity
  8
0
370
    13
100
AcDbLine
 10
34.56194946832275
 20
89.50992830376675
 30
0.0
 11
34.50606412194884
 21
89.30676863283094
 31
0.0
  0
LINE
  5
1CD1
102
{ACAD_REACTORS
330
1DE8
102
}
330
A
100
AcDbEntity
  8
0
370
    13
100
AcDbLine
 10
37.6675310400555
 20
88.89058717101091
 30
0.0
 11
38.26418929693017
 21
89.05824321013273
 31
0.0
  0
LINE
  5
1CD2
102
{ACAD_REACTORS
330
1DE8
102
}
330
A
100
AcDbEntity
  8
0
370
    13
100
AcDbLine
 10
38.11395633638375
 20
89.65325778034928
 30
0.0
 11
37.6675310400555
 21
89.52866633166861
 31
0.0
  0
LINE
  5
1CD3
102
{ACAD_REACTORS
330
1DE8
102
}
330
A
100
AcDbEntity
  8
0
370
    13
100
AcDbLine
 10
38.39108190693215
 20
89.30676863283094
 30
0.0
 11
38.33289539923692
 21
89.50992830376671
 31
0.0
  0
LINE
  5
1CD4
102
{ACAD_REACTORS
330
1DE8
102
}
330
A
100
AcDbEntity
  8
0
370
    13
100
AcDbLine
 10
36.41175443330002
 20
87.81791725796294
 30
0.0
 11
36.47388578897457
 21
87.81791725796294
 31
0.0
  0
LINE
  5
1CD5
102
{ACAD_REACTORS
330
1DE8
102
}
330
A
100
AcDbEntity
  8
0
370
    13
100
AcDbLine
 10
35.21712297022423
 20
94.57478437190337
 30
0.0
 11
35.21712297022423
 21
92.79861656920706
 31
0.0
  0
LINE
  5
1CD6
102
{ACAD_REACTORS
330
1DE8
102
}
330
A
100
AcDbEntity
  8
0
370
    13
100
AcDbLine
 10
35.21712297022423
 20
92.79861656920706
 30
0.0
 11
34.77595747120176
 21
92.92320801788775
 31
0.0
  0
LINE
  5
1CD7
102
{ACAD_REACTORS
330
1DE8
102
}
330
A
100
AcDbEntity
  8
0
370
    13
100
AcDbLine
 10
34.64577748788366
 20
92.3288509223344
 30
0.0
 11
35.09746258151767
 21
92.20425947365365
 31
0.0
  0
LINE
  5
1CD8
102
{ACAD_REACTORS
330
1DE8
102
}
330
A
100
AcDbEntity
  8
0
370
    13
100
AcDbLine
 10
34.56194946832275
 20
92.77987854130518
 30
0.0
 11
34.53137689648292
 21
92.57737634503257
 31
0.0
  0
LINE
  5
1CD9
102
{ACAD_REACTORS
330
1DE8
102
}
330
A
100
AcDbEntity
  8
0
370
    13
100
AcDbLine
 10
32.93338472751995
 20
95.67638317013313
 30
0.0
 11
32.93338472751997
 21
94.98340487509606
 31
0.0
  0
LINE
  5
1CDA
102
{ACAD_REACTORS
330
1DE8
102
}
330
A
100
AcDbEntity
  8
0
370
    13
100
AcDbLine
 10
33.12799722783219
 20
94.78024520416045
 30
0.0
 11
35.02020930858904
 21
94.78024520416045
 31
0.0
  0
LINE
  5
1CDB
330
A
100
AcDbEntity
  8
0
370
    13
100
AcDbLine
 10
34.56751540465972
 20
90.78009123034709
 30
0.0
 11
34.89119661497207
 21
90.78009123034709
 31
0.0
  0
LINE
  5
1CDC
330
A
100
AcDbEntity
  8
0
370
    13
100
AcDbLine
 10
35.09169703681661
 20
90.97869656313831
 30
0.0
 11
35.09169703681661
 21
91.57906077523987
 31
0.0
  0
LINE
  5
1CDD
330
A
100
AcDbEntity
  8
0
370
    13
100
AcDbLine
 10
34.89119661497207
 20
91.7784241436524
 30
0.0
 11
34.56751540465972
 21
91.7784241436524
 31
0.0
  0
LINE
  5
1CDE
330
A
100
AcDbEntity
  8
0
370
    13
100
AcDbLine
 10
34.36739400062583
 20
91.97930358330763
 30
0.0
 11
34.36739400062583
 21
93.3801534115447
 31
0.0
  0
LINE
  5
1CDF
330
A
100
AcDbEntity
  8
0
370
    13
100
AcDbLine
 10
34.56751540465972
 20
93.58027481557858
 30
0.0
 11
34.99163633479966
 21
93.58027481557858
 31
0.0
  0
LINE
  5
1CE0
330
A
100
AcDbEntity
  8
0
370
    13
100
AcDbLine
 10
35.19175773883353
 20
93.78039621961242
 30
0.0
 11
35.19175773883353
 21
94.58088183574792
 31
0.0
  0
LINE
  5
1CE1
330
A
100
AcDbEntity
  8
0
370
    13
100
AcDbLine
 10
34.99163633479966
 20
94.78024520416045
 30
0.0
 11
33.86746950835183
 21
94.78024520416045
 31
0.0
  0
LINE
  5
1CE2
102
{ACAD_REACTORS
330
1DE8
102
}
330
A
100
AcDbEntity
  8
0
370
    13
100
AcDbLine
 10
37.6675310400555
 20
92.16513973119191
 30
0.0
 11
38.26418929693017
 21
92.33345324497696
 31
0.0
  0
LINE
  5
1CE3
102
{ACAD_REACTORS
330
1DE8
102
}
330
A
100
AcDbEntity
  8
0
370
    13
100
AcDbLine
 10
38.11395633638375
 20
92.92320801788775
 30
0.0
 11
37.6675310400555
 21
92.79861656920706
 31
0.0
  0
LINE
  5
1CE4
102
{ACAD_REACTORS
330
1DE8
102
}
330
A
100
AcDbEntity
  8
0
370
    13
100
AcDbLine
 10
38.9002960335982
 20
94.78024520416045
 30
0.0
 11
37.88384020425579
 21
94.78024520416045
 31
0.0
  0
LINE
  5
1CE5
102
{ACAD_REACTORS
330
1DE8
102
}
330
A
100
AcDbEntity
  8
0
370
    13
100
AcDbLine
 10
37.86214354036855
 20
94.78024520416045
 30
0.0
 11
39.31549128342399
 21
94.78024520416045
 31
0.0
  0
LINE
  5
1CE6
102
{ACAD_REACTORS
330
1DE8
102
}
330
A
100
AcDbEntity
  8
0
370
    13
100
AcDbLine
 10
37.6675310400555
 20
92.79861656920706
 30
0.0
 11
37.6675310400555
 21
94.57774300789035
 31
0.0
  0
LINE
  5
1CE7
102
{ACAD_REACTORS
330
1DE8
102
}
330
A
100
AcDbEntity
  8
0
370
    13
100
AcDbLine
 10
38.39108190693215
 20
92.58197866767517
 30
0.0
 11
38.33316013179123
 21
92.77808829668646
 31
0.0
  0
LINE
  5
1CE8
102
{ACAD_REACTORS
330
1DE8
102
}
330
A
100
AcDbEntity
  8
0
370
    13
100
AcDbLine
 10
39.51010378373732
 20
94.98340487509612
 30
0.0
 11
39.51010378373732
 21
96.60670981859324
 31
0.0
  0
LINE
  5
1CE9
330
A
100
AcDbEntity
  8
0
370
    13
100
AcDbLine
 10
38.95237245630335
 20
94.78024520416045
 30
0.0
 11
37.8930176754801
 21
94.78024520416045
 31
0.0
  0
LINE
  5
1CEA
330
A
100
AcDbEntity
  8
0
370
    13
100
AcDbLine
 10
37.69289627144621
 20
94.58088183574792
 30
0.0
 11
37.69289627144621
 21
93.78039621961242
 31
0.0
  0
LINE
  5
1CEB
330
A
100
AcDbEntity
  8
0
370
    13
100
AcDbLine
 10
37.8930176754801
 20
93.58027481557858
 30
0.0
 11
38.31675958780938
 21
93.58027481557858
 31
0.0
  0
LINE
  5
1CEC
330
A
100
AcDbEntity
  8
0
370
    13
100
AcDbLine
 10
38.51726000965394
 20
93.3801534115447
 30
0.0
 11
38.51726000965394
 21
92.60240886404943
 31
0.0
  0
LINE
  5
1CED
330
A
100
AcDbEntity
  8
0
370
    13
100
AcDbLine
 10
38.52256625900331
 20
92.55844279801168
 30
0.0
 11
38.64574704747113
 21
92.02478572058806
 31
0.0
  0
LINE
  5
1CEE
330
A
100
AcDbEntity
  8
0
370
    13
100
AcDbLine
 10
38.45093189278664
 20
91.7784241436524
 30
0.0
 11
37.99307837749703
 21
91.7784241436524
 31
0.0
  0
LINE
  5
1CEF
330
A
100
AcDbEntity
  8
0
370
    13
100
AcDbLine
 10
37.79295697346316
 20
91.57906077523987
 30
0.0
 11
37.79295697346316
 21
90.97869656313831
 31
0.0
  0
LINE
  5
1CF0
330
A
100
AcDbEntity
  8
0
370
    13
100
AcDbLine
 10
37.99307837749703
 20
90.78009123034709
 30
0.0
 11
38.77802426339504
 21
90.78009123034709
 31
0.0
  0
LINE
  5
1CF1
102
{ACAD_REACTORS
330
1DEA
102
}
330
A
100
AcDbEntity
  8
0
370
    13
100
AcDbLine
 10
64.71856893415952
 20
72.72494823350323
 30
0.0
 11
64.71856893415952
 21
33.09664911974326
 31
0.0
  0
LINE
  5
1CF2
102
{ACAD_REACTORS
330
1DEB
102
}
330
A
100
AcDbEntity
  8
0
370
    13
100
AcDbLine
 10
64.71856893415955
 20
87.88313295097955
 30
0.0
 11
64.71856893415955
 21
48.25417636255878
 31
0.0
  0
LINE
  5
1CF3
330
A
100
AcDbEntity
  8
0
370
    13
100
AcDbLine
 10
84.06610442475676
 20
4.978359005717706
 30
0.0
 11
84.06610442475676
 21
93.78039621961242
 31
0.0
  0
LINE
  5
1CF4
330
A
100
AcDbEntity
  8
0
370
    13
100
AcDbLine
 10
81.86476898038419
 20
27.56624976676992
 30
0.0
 11
81.86476898038419
 21
11.48003052995444
 31
0.0
  0
LINE
  5
1CF5
330
A
100
AcDbEntity
  8
0
370
    13
100
AcDbLine
 10
72.94041561034351
 20
11.57023676889394
 30
0.0
 11
73.7151280153534
 21
28.81625050636025
 31
0.0
  0
LINE
  5
1CF6
330
A
100
AcDbEntity
  8
0
370
    13
100
AcDbLine
 10
72.08421437603949
 20
32.79972769650415
 30
0.0
 11
70.43321279276009
 21
19.73130721772112
 31
0.0
  0
LINE
  5
1CF7
330
A
100
AcDbEntity
  8
0
370
    13
100
AcDbLine
 10
68.44753848265885
 20
17.98024493242477
 30
0.0
 11
57.07510907349929
 21
17.98024493242477
 31
0.0
  0
LINE
  5
1CF8
330
A
100
AcDbEntity
  8
0
370
    13
100
AcDbLine
 10
65.56472901470127
 20
5.721233914631305
 30
0.0
 11
66.44821953137351
 21
4.83736438014839
 31
0.0
  0
DIMENSION
  5
1CF9
330
A
100
AcDbEntity
  8
寸法
370
    13
100
AcDbDimension
  2
*D2
 10
67.45067870140387
 20
-5.221004167382337
 30
0.0
 11
56.45067870140387
 21
-3.221004167382337
 31
0.0
 70
    32
  1
%%c<>
 71
     5
 42
22.00000000000001
  3
ISO-25 1／10
100
AcDbAlignedDimension
 13
45.45067870140385
 23
15.17805371157193
 33
0.0
 14
67.45067870140387
 24
14.99233498434353
 34
0.0
100
AcDbRotatedDimension
1001
ACAD
1000
DSTYLE
1002
{
1070
   279
1070
     1
1002
}
  0
LINE
  5
1CFA
102
{ACAD_REACTORS
330
1DE6
102
}
330
A
100
AcDbEntity
  8
0
370
    13
100
AcDbLine
 10
63.53949978133525
 20
7.750723562989549
 30
0.0
 11
63.53949978133525
 21
13.30998025546713
 31
0.0
  0
LINE
  5
1CFB
102
{ACAD_REACTORS
330
1DE6
102
}
330
A
100
AcDbEntity
  8
0
370
    13
100
AcDbLine
 10
60.4311679969795
 20
7.750723562989549
 30
0.0
 11
60.4311679969795
 21
13.30998025546713
 31
0.0
  0
LINE
  5
1CFC
102
{ACAD_REACTORS
330
1DE6
102
}
330
A
100
AcDbEntity
  8
0
370
    13
100
AcDbLine
 10
52.47018940582811
 20
7.750723562989549
 30
0.0
 11
52.47018940582811
 21
13.30998025546713
 31
0.0
  0
LINE
  5
1CFD
102
{ACAD_REACTORS
330
1DE6
102
}
330
A
100
AcDbEntity
  8
0
370
    13
100
AcDbLine
 10
49.36185762147246
 20
7.750723562989549
 30
0.0
 11
49.36185762147246
 21
13.30998025546713
 31
0.0
  0
DIMENSION
  5
1CFE
330
A
100
AcDbEntity
  8
寸法
370
    13
100
AcDbDimension
  2
*D3
 10
61.95067870140386
 20
-0.2210042650385853
 30
0.0
 11
56.45067870140386
 21
1.778995734961414
 31
0.0
 70
    32
  1
%%c<>
 71
     5
 42
11.0
  3
ISO-25 1／10
100
AcDbAlignedDimension
 13
50.95067870140386
 23
5.778844621853183
 33
0.0
 14
61.95067870140386
 24
5.778844621853183
 34
0.0
100
AcDbRotatedDimension
1001
ACAD
1000
DSTYLE
1002
{
1070
   279
1070
     1
1002
}
  0
LINE
  5
1CFF
102
{ACAD_REACTORS
330
1DE6
102
}
330
A
100
AcDbEntity
  8
0
370
    13
100
AcDbLine
 10
65.19087578592936
 20
5.778844621853181
 30
0.0
 11
47.71048161687835
 21
5.778844621853181
 31
0.0
  0
LINE
  5
1D00
102
{ACAD_REACTORS
330
1DE6
102
}
330
A
100
AcDbEntity
  8
0
370
    13
100
AcDbLine
 10
65.19087578592936
 20
7.750723562989549
 30
0.0
 11
47.71048161687835
 21
7.750723562989549
 31
0.0
  0
LINE
  5
1D01
102
{ACAD_REACTORS
330
1DE6
102
}
330
A
100
AcDbEntity
  8
0
370
    13
100
AcDbLine
 10
47.71048161687835
 20
7.750723562989549
 30
0.0
 11
47.71048161687835
 21
5.778844621853181
 31
0.0
  0
LINE
  5
1D02
330
A
100
AcDbEntity
  8
0
370
    13
100
AcDbLine
 10
50.95067870140387
 20
9.280969192445891
 30
0.0
 11
50.95067870140386
 21
5.778844621853181
 31
0.0
  0
LINE
  5
1D03
330
A
100
AcDbEntity
  8
0
370
    13
100
AcDbLine
 10
61.95067870140386
 20
9.280969192445891
 30
0.0
 11
61.95067870140386
 21
5.778844621853181
 31
0.0
  0
LINE
  5
1D04
102
{ACAD_REACTORS
330
1DE6
102
}
330
A
100
AcDbEntity
  8
0
370
    13
100
AcDbLine
 10
65.19087578592936
 20
5.778844621853181
 30
0.0
 11
65.19087578592936
 21
7.750723562989549
 31
0.0
  0
ARC
  5
1D05
102
{ACAD_REACTORS
330
1DE6
102
}
330
A
100
AcDbEntity
  8
0
370
    13
100
AcDbCircle
 10
56.4506787014038
 20
-2.243060829604274
 30
0.0
 40
16.05432595988109
100
AcDbArc
 50
75.64442930541459
 51
104.3555706945854
  0
LWPOLYLINE
  5
1D06
330
A
100
AcDbEntity
  8
0
370
    13
100
AcDbPolyline
 90
        4
 70
     1
 43
0.0
 10
51.45067870140387
 20
17.98024493242477
 10
61.45067870140387
 20
17.98024493242477
 10
61.45067870140387
 20
19.98024493242477
 10
51.45067870140387
 20
19.98024493242477
  0
LINE
  5
1D07
102
{ACAD_REACTORS
330
1DE6
102
}
330
A
100
AcDbEntity
  8
0
370
    13
100
AcDbLine
 10
62.04663345519825
 20
13.81123590490236
 30
0.0
 11
50.91599013854917
 21
13.81123590490136
 31
0.0
  0
LINE
  5
1D08
330
A
100
AcDbEntity
  8
0
370
    13
100
AcDbLine
 10
45.45067870140387
 20
17.98024493242477
 30
0.0
 11
45.45067870140385
 21
15.17805371157193
 31
0.0
  0
LINE
  5
1D09
330
A
100
AcDbEntity
  8
0
370
    13
100
AcDbLine
 10
56.86323811733465
 20
17.89307083597061
 30
0.0
 11
56.59224038270545
 21
17.62169408353075
 31
0.0
  0
LINE
  5
1D0A
330
A
100
AcDbEntity
  8
0
370
    13
100
AcDbLine
 10
56.3091140781348
 20
17.62169408353075
 30
0.0
 11
56.0381163435056
 21
17.89307083597061
 31
0.0
  0
LINE
  5
1D0B
330
A
100
AcDbEntity
  8
0
370
    13
100
AcDbLine
 10
79.8635549400455
 20
9.480332560858435
 30
0.0
 11
74.94011357943951
 21
9.480332560858435
 31
0.0
  0
LINE
  5
1D0C
330
A
100
AcDbEntity
  8
0
370
    13
100
AcDbLine
 10
66.58921415694283
 20
4.778995637305165
 30
0.0
 11
83.8659830207229
 21
4.778995637305165
 31
0.0
  0
LINE
  5
1D0D
330
A
100
AcDbEntity
  8
0
370
    13
100
AcDbLine
 10
67.45067870140387
 20
17.98024493242477
 30
0.0
 11
67.45067870140387
 21
15.02101839109693
 31
0.0
  0
LINE
  5
1D0E
330
A
100
AcDbEntity
  8
0
370
    13
100
AcDbLine
 10
68.66585274160491
 20
13.35118786414153
 30
0.0
 11
68.83262057829978
 21
11.45653142569289
 31
0.0
  0
LINE
  5
1D0F
330
A
100
AcDbEntity
  8
0
370
    13
100
AcDbLine
 10
74.39356989645308
 20
35.12310687591251
 30
0.0
 11
76.71846514710413
 21
53.57748407744491
 31
0.0
  0
LINE
  5
1D10
330
A
100
AcDbEntity
  8
0
370
    13
100
AcDbLine
 10
81.86476898038419
 20
54.46362771879185
 30
0.0
 11
81.86476898038419
 21
32.89145000668633
 31
0.0
  0
LINE
  5
1D11
330
A
100
AcDbEntity
  8
0
370
    13
100
AcDbLine
 10
73.33497315125118
 20
42.72696219357821
 30
0.0
 11
72.95974551868766
 21
39.74864023733172
 31
0.0
  0
LINE
  5
1D12
330
A
100
AcDbEntity
  8
0
370
    13
100
AcDbLine
 10
76.39857411489848
 20
30.60673064396632
 30
0.0
 11
80.87742758358832
 21
28.97695405808443
 31
0.0
  0
LINE
  5
1D13
330
A
100
AcDbEntity
  8
0
370
    13
100
AcDbLine
 10
79.85028931667205
 20
31.47998767975048
 30
0.0
 11
75.69549607610523
 21
32.99302677994595
 31
0.0
  0
LINE
  5
1D14
330
A
100
AcDbEntity
  8
0
370
    13
100
AcDbLine
 10
72.70921474583467
 20
37.76334494504117
 30
0.0
 11
72.33436613108183
 21
34.78502298879468
 31
0.0
  0
LINE
  5
1D15
330
A
100
AcDbEntity
  8
0
370
    13
100
AcDbLine
 10
78.01925427332427
 20
55.20801869894815
 30
0.0
 11
79.85028931667205
 21
55.87433201010637
 31
0.0
  0
LINE
  5
1D16
330
A
100
AcDbEntity
  8
0
370
    13
100
AcDbLine
 10
74.5853529086522
 20
52.65419669065228
 30
0.0
 11
74.20974625827802
 21
49.6758747344058
 31
0.0
  0
LINE
  5
1D17
330
A
100
AcDbEntity
  8
0
370
    13
100
AcDbLine
 10
73.95959450323569
 20
47.6898214064939
 30
0.0
 11
73.58474588848285
 21
44.71225748586876
 31
0.0
  0
LINE
  5
1D18
330
A
100
AcDbEntity
  8
0
370
    13
100
AcDbLine
 10
75.21035327844737
 20
57.61705590356798
 30
0.0
 11
74.83512564588385
 21
54.63873394732149
 31
0.0
  0
LINE
  5
1D19
102
{ACAD_REACTORS
330
1DE9
102
}
330
A
100
AcDbEntity
  8
0
370
    13
100
AcDbLine
 10
81.80313008543361
 20
89.52899506900019
 30
0.0
 11
81.80313008543361
 21
92.00866076134486
 31
0.0
  0
LINE
  5
1D1A
102
{ACAD_REACTORS
330
1DE9
102
}
330
A
100
AcDbEntity
  8
0
370
    13
100
AcDbLine
 10
79.32445060508378
 20
92.16384629853768
 30
0.0
 11
79.32445060508378
 21
89.52735824162187
 31
0.0
  0
LINE
  5
1D1B
330
A
100
AcDbEntity
  8
0
370
    13
100
AcDbLine
 10
82.56481487669207
 20
90.57845375507053
 30
0.0
 11
82.56481487669207
 21
87.97687550263026
 31
0.0
  0
LINE
  5
1D1C
330
A
100
AcDbEntity
  8
0
370
    13
100
AcDbLine
 10
78.56276581382537
 20
87.97687550263026
 30
0.0
 11
78.56276581382537
 21
90.57845375507053
 31
0.0
  0
LINE
  5
1D1D
330
A
100
AcDbEntity
  8
0
370
    13
100
AcDbLine
 10
77.06147626576066
 20
93.78039621961242
 30
0.0
 11
77.06147626576066
 21
86.94064080825789
 31
0.0
  0
LINE
  5
1D1E
330
A
100
AcDbEntity
  8
0
370
    13
100
AcDbLine
 10
77.56140075803466
 20
60.27245468512345
 30
0.0
 11
79.5887670273096
 21
76.36858306866582
 31
0.0
  0
LINE
  5
1D1F
330
A
100
AcDbEntity
  8
0
370
    13
100
AcDbLine
 10
82.06489038441807
 20
76.21318576629102
 30
0.0
 11
82.06489038441807
 21
59.86084134273561
 31
0.0
  0
LINE
  5
1D20
330
A
100
AcDbEntity
  8
0
370
    13
100
AcDbLine
 10
76.46073303584839
 20
67.54429040064204
 30
0.0
 11
76.08512638547421
 21
64.56672648001691
 31
0.0
  0
LINE
  5
1D21
330
A
100
AcDbEntity
  8
0
370
    13
100
AcDbLine
 10
75.83497463043187
 20
62.58218922334769
 30
0.0
 11
75.46012601567904
 21
59.60310923147987
 31
0.0
  0
LINE
  5
1D22
330
A
100
AcDbEntity
  8
0
370
    13
100
AcDbLine
 10
77.08573340564356
 20
72.50866568480041
 30
0.0
 11
76.71050577308005
 21
69.53034372855393
 31
0.0
  0
LINE
  5
1D23
330
A
100
AcDbEntity
  8
0
370
    13
100
AcDbLine
 10
81.07754898762218
 20
58.45013705142108
 30
0.0
 11
80.23158123420627
 21
58.14161655353555
 31
0.0
  0
LINE
  5
1D24
330
A
100
AcDbEntity
  8
0
370
    13
100
AcDbLine
 10
78.06284132155133
 20
86.27584356834233
 30
0.0
 11
81.06466238205937
 21
86.27584356834233
 31
0.0
  0
LINE
  5
1D25
330
A
100
AcDbEntity
  8
0
370
    13
100
AcDbLine
 10
81.06466238205937
 20
79.45682019000665
 30
0.0
 11
78.04654355569252
 21
79.45682019000665
 31
0.0
  0
LINE
  5
1D26
330
A
100
AcDbEntity
  8
0
370
    13
100
AcDbLine
 10
77.71111279324938
 20
77.47152489771614
 30
0.0
 11
77.33550614287523
 21
74.49396097709096
 31
0.0
  0
LINE
  5
1D27
330
A
100
AcDbEntity
  8
0
370
    13
100
AcDbLine
 10
82.06489038441807
 20
85.27523654817299
 30
0.0
 11
82.06489038441807
 21
80.45742721017601
 31
0.0
  0
LINE
  5
1D28
102
{ACAD_REACTORS
330
1DE9
102
}
330
A
100
AcDbEntity
  8
0
370
    13
100
AcDbLine
 10
79.32445060508378
 20
89.52735824162187
 30
0.0
 11
78.89347596334125
 21
89.65358651768093
 31
0.0
  0
LINE
  5
1D29
102
{ACAD_REACTORS
330
1DE9
102
}
330
A
100
AcDbEntity
  8
0
370
    13
100
AcDbLine
 10
78.76296724269153
 20
89.05692826080628
 30
0.0
 11
79.34055873433273
 21
88.88927222168446
 31
0.0
  0
LINE
  5
1D2A
102
{ACAD_REACTORS
330
1DE9
102
}
330
A
100
AcDbEntity
  8
0
370
    13
100
AcDbLine
 10
78.67322195116162
 20
89.50992830376675
 30
0.0
 11
78.64297811665338
 21
89.30545368350449
 31
0.0
  0
LINE
  5
1D2B
102
{ACAD_REACTORS
330
1DE9
102
}
330
A
100
AcDbEntity
  8
0
370
    13
100
AcDbLine
 10
80.5443948426936
 20
87.81824599529455
 30
0.0
 11
80.59600660375661
 21
87.81824599529457
 31
0.0
  0
LINE
  5
1D2C
102
{ACAD_REACTORS
330
1DE9
102
}
330
A
100
AcDbEntity
  8
0
370
    13
100
AcDbLine
 10
82.22851619253873
 20
89.65358651768093
 30
0.0
 11
81.80313008543361
 21
89.52899506900019
 31
0.0
  0
LINE
  5
1D2D
102
{ACAD_REACTORS
330
1DE9
102
}
330
A
100
AcDbEntity
  8
0
370
    13
100
AcDbLine
 10
81.81332094271356
 20
88.88927222168447
 30
0.0
 11
82.39156990901799
 21
89.05692826080629
 31
0.0
  0
LINE
  5
1D2E
102
{ACAD_REACTORS
330
1DE9
102
}
330
A
100
AcDbEntity
  8
0
370
    13
100
AcDbLine
 10
82.52700968964187
 20
89.30479620884131
 30
0.0
 11
82.46257717264603
 21
89.50992830376671
 31
0.0
  0
LINE
  5
1D2F
330
A
100
AcDbEntity
  8
0
370
    13
100
AcDbLine
 10
82.36545150827954
 20
87.77751213421769
 30
0.0
 11
78.76288721785922
 21
87.77751213421769
 31
0.0
  0
LINE
  5
1D30
102
{ACAD_REACTORS
330
1DE9
102
}
330
A
100
AcDbEntity
  8
0
370
    13
100
AcDbLine
 10
77.37931181393921
 20
96.77798196836286
 30
0.0
 11
65.14765317934283
 21
104.0598426008865
 31
0.0
  0
LINE
  5
1D31
102
{ACAD_REACTORS
330
1DE9
102
}
330
A
100
AcDbEntity
  8
0
370
    13
100
AcDbLine
 10
83.99482187528672
 20
95.85751743985097
 30
0.0
 11
65.62169241152645
 21
105.0118659132331
 31
0.0
  0
LINE
  5
1D32
102
{ACAD_REACTORS
330
1DE9
102
}
330
A
100
AcDbEntity
  8
0
370
    13
100
AcDbLine
 10
79.1482473953406
 20
94.78024520416045
 30
0.0
 11
78.10089025682619
 21
94.78024520416045
 31
0.0
  0
LINE
  5
1D33
102
{ACAD_REACTORS
330
1DE9
102
}
330
A
100
AcDbEntity
  8
0
370
    13
100
AcDbLine
 10
77.64460284054914
 20
94.78024520416045
 30
0.0
 11
79.1482473953406
 21
94.78024520416045
 31
0.0
  0
LINE
  5
1D34
330
A
100
AcDbEntity
  8
0
370
    13
100
AcDbLine
 10
79.11309967491849
 20
94.78024520416045
 30
0.0
 11
78.06208328593001
 21
94.78024520416045
 31
0.0
  0
LINE
  5
1D35
102
{ACAD_REACTORS
330
1DE9
102
}
330
A
100
AcDbEntity
  8
0
370
    13
100
AcDbLine
 10
77.46807089347427
 20
96.61032592924108
 30
0.0
 11
77.46807089347427
 21
94.98373361242371
 31
0.0
  0
LINE
  5
1D36
102
{ACAD_REACTORS
330
1DE9
102
}
330
A
100
AcDbEntity
  8
0
370
    13
100
AcDbLine
 10
84.10494888137652
 20
94.98373361242739
 30
0.0
 11
84.10494888137652
 21
95.67835559412277
 31
0.0
  0
LINE
  5
1D37
102
{ACAD_REACTORS
330
1DE9
102
}
330
A
100
AcDbEntity
  8
0
370
    13
100
AcDbLine
 10
83.0391824522924
 20
94.78024520416045
 30
0.0
 11
81.97933329517729
 21
94.78024520416045
 31
0.0
  0
LINE
  5
1D38
102
{ACAD_REACTORS
330
1DE9
102
}
330
A
100
AcDbEntity
  8
0
370
    13
100
AcDbLine
 10
81.80313008543361
 20
92.79894530653866
 30
0.0
 11
81.80313008543361
 21
94.5780717452194
 31
0.0
  0
LINE
  5
1D39
102
{ACAD_REACTORS
330
1DE9
102
}
330
A
100
AcDbEntity
  8
0
370
    13
100
AcDbLine
 10
81.80313008543361
 20
94.5780717452194
 30
0.0
 11
81.80313008543361
 21
93.75688589085422
 31
0.0
  0
LINE
  5
1D3A
102
{ACAD_REACTORS
330
1DE9
102
}
330
A
100
AcDbEntity
  8
0
370
    13
100
AcDbLine
 10
79.32445060508378
 20
93.75688589085422
 30
0.0
 11
79.32445060508378
 21
94.57675679589328
 31
0.0
  0
LINE
  5
1D3B
102
{ACAD_REACTORS
330
1DE9
102
}
330
A
100
AcDbEntity
  8
0
370
    13
100
AcDbLine
 10
79.32445060508378
 20
92.79730847916033
 30
0.0
 11
78.89347596334125
 21
92.9235367552194
 31
0.0
  0
LINE
  5
1D3C
102
{ACAD_REACTORS
330
1DE9
102
}
330
A
100
AcDbEntity
  8
0
370
    13
100
AcDbLine
 10
79.32445060508378
 20
94.57445563457174
 30
0.0
 11
79.32445060508378
 21
92.79730847916033
 31
0.0
  0
LINE
  5
1D3D
102
{ACAD_REACTORS
330
1DE9
102
}
330
A
100
AcDbEntity
  8
0
370
    13
100
AcDbLine
 10
78.67322195116162
 20
92.78086475330008
 30
0.0
 11
78.62128145276702
 21
92.58164993034354
 31
0.0
  0
LINE
  5
1D3E
102
{ACAD_REACTORS
330
1DE9
102
}
330
A
100
AcDbEntity
  8
0
370
    13
100
AcDbLine
 10
78.74127057880517
 20
92.33312450764534
 30
0.0
 11
79.3244506050838
 21
92.16384629853772
 31
0.0
  0
LINE
  5
1D3F
102
{ACAD_REACTORS
330
1DE9
102
}
330
A
100
AcDbEntity
  8
0
370
    13
100
AcDbLine
 10
82.22851619253873
 20
92.9235367552194
 30
0.0
 11
81.80313008543361
 21
92.79894530653866
 31
0.0
  0
LINE
  5
1D40
102
{ACAD_REACTORS
330
1DE9
102
}
330
A
100
AcDbEntity
  8
0
370
    13
100
AcDbLine
 10
81.94448713802648
 20
92.20458821098523
 30
0.0
 11
82.375461779769
 21
92.32917965966596
 31
0.0
  0
LINE
  5
1D41
102
{ACAD_REACTORS
330
1DE9
102
}
330
A
100
AcDbEntity
  8
0
370
    13
100
AcDbLine
 10
82.51090156039289
 20
92.57770508236417
 30
0.0
 11
82.46257717264603
 21
92.77922106664197
 31
0.0
  0
LINE
  5
1D42
102
{ACAD_REACTORS
330
1DE9
102
}
330
A
100
AcDbEntity
  8
0
370
    13
100
AcDbLine
 10
81.97933329517729
 20
94.78024520416045
 30
0.0
 11
83.92874567163309
 21
94.78024520416045
 31
0.0
  0
LINE
  5
1D43
330
A
100
AcDbEntity
  8
0
370
    13
100
AcDbLine
 10
83.0654974045874
 20
94.78024520416045
 30
0.0
 11
82.01448101559893
 21
94.78024520416045
 31
0.0
  0
LINE
  5
1D44
330
A
100
AcDbEntity
  8
0
370
    13
100
AcDbLine
 10
81.81435961156505
 20
94.58088183574792
 30
0.0
 11
81.81435961156505
 21
93.78039621961242
 31
0.0
  0
LINE
  5
1D45
330
A
100
AcDbEntity
  8
0
370
    13
100
AcDbLine
 10
82.01448101559893
 20
93.58027481557858
 30
0.0
 11
82.36545150827954
 21
93.58027481557858
 31
0.0
  0
LINE
  5
1D46
330
A
100
AcDbEntity
  8
0
370
    13
100
AcDbLine
 10
82.56481487669207
 20
93.3801534115447
 30
0.0
 11
82.56481487669207
 21
91.97930358330763
 31
0.0
  0
LINE
  5
1D47
330
A
100
AcDbEntity
  8
0
370
    13
100
AcDbLine
 10
82.36545150827954
 20
91.7784241436524
 30
0.0
 11
82.11454171761587
 21
91.7784241436524
 31
0.0
  0
LINE
  5
1D48
330
A
100
AcDbEntity
  8
0
370
    13
100
AcDbLine
 10
81.91442031358198
 20
91.57906077523987
 30
0.0
 11
81.91442031358198
 21
90.97869656313831
 31
0.0
  0
LINE
  5
1D49
330
A
100
AcDbEntity
  8
0
370
    13
100
AcDbLine
 10
82.11454171761587
 20
90.78009123034709
 30
0.0
 11
82.36545150827954
 21
90.78009123034709
 31
0.0
  0
LINE
  5
1D4A
330
A
100
AcDbEntity
  8
0
370
    13
100
AcDbLine
 10
79.21316037693543
 20
90.97869656313831
 30
0.0
 11
79.21316037693543
 21
91.57906077523987
 31
0.0
  0
LINE
  5
1D4B
330
A
100
AcDbEntity
  8
0
370
    13
100
AcDbLine
 10
79.31322107895235
 20
93.78039621961242
 30
0.0
 11
79.31322107895235
 21
94.58088183574792
 31
0.0
  0
LINE
  5
1D4C
330
A
100
AcDbEntity
  8
0
370
    13
100
AcDbLine
 10
78.56276581382537
 20
91.97930358330763
 30
0.0
 11
78.56276581382537
 21
93.3801534115447
 31
0.0
  0
LINE
  5
1D4D
330
A
100
AcDbEntity
  8
0
370
    13
100
AcDbLine
 10
78.76288721785922
 20
90.78009123034709
 30
0.0
 11
79.01303897290157
 21
90.78009123034709
 31
0.0
  0
LINE
  5
1D4E
330
A
100
AcDbEntity
  8
0
370
    13
100
AcDbLine
 10
79.01303897290157
 20
91.7784241436524
 30
0.0
 11
78.76288721785922
 21
91.7784241436524
 31
0.0
  0
LINE
  5
1D4F
330
A
100
AcDbEntity
  8
0
370
    13
100
AcDbLine
 10
78.76288721785922
 20
93.58027481557858
 30
0.0
 11
79.11309967491849
 21
93.58027481557858
 31
0.0
  0
LINE
  5
1D50
102
{ACAD_REACTORS
330
1DE6
102
}
330
A
100
AcDbEntity
  8
0
370
    13
100
AcDbLine
 10
60.4506787014038
 20
-67.60557775481848
 30
0.0
 11
60.4506787014038
 21
-73.45087721643922
 31
0.0
  0
LINE
  5
1D51
102
{ACAD_REACTORS
330
1DE6
102
}
330
A
100
AcDbEntity
  8
0
370
    13
100
AcDbLine
 10
52.4506787014038
 20
-65.22437990833552
 30
0.0
 11
52.4506787014038
 21
-71.06967936995627
 31
0.0
  0
LINE
  5
1D52
102
{ACAD_REACTORS
330
1DE6
102
}
330
A
100
AcDbEntity
  8
0
370
    13
100
AcDbLine
 10
60.4506787014038
 20
-66.45087721643921
 30
0.0
 11
52.4506787014038
 21
-71.06967936995627
 31
0.0
  0
LINE
  5
1D53
102
{ACAD_REACTORS
330
1DE6
102
}
330
A
100
AcDbEntity
  8
0
370
    13
100
AcDbLine
 10
60.4506787014038
 20
-67.60557775481851
 30
0.0
 11
52.4506787014038
 21
-72.22437990833549
 31
0.0
  0
LINE
  5
1D54
102
{ACAD_REACTORS
330
1DE6
102
}
330
A
100
AcDbEntity
  8
0
370
    13
100
AcDbLine
 10
61.7006787014038
 20
-66.3065396491418
 30
0.0
 11
51.2006787014038
 21
-72.36871747563291
 31
0.0
  0
LINE
  5
1D55
102
{ACAD_REACTORS
330
1DE6
102
}
330
A
100
AcDbEntity
  8
0
370
    13
100
AcDbLine
 10
60.4506787014038
 20
-73.4508772164392
 30
0.0
 11
52.4506787014038
 21
-78.06967936995627
 31
0.0
  0
LINE
  5
1D56
102
{ACAD_REACTORS
330
1DE6
102
}
330
A
100
AcDbEntity
  8
0
370
    13
100
AcDbLine
 10
61.7006787014038
 20
-73.3065396491418
 30
0.0
 11
51.2006787014038
 21
-79.36871747563291
 31
0.0
  0
LINE
  5
1D57
102
{ACAD_REACTORS
330
1DE6
102
}
330
A
100
AcDbEntity
  8
0
370
    13
100
AcDbLine
 10
60.4506787014038
 20
-74.60557775481851
 30
0.0
 11
52.4506787014038
 21
-79.22437990833549
 31
0.0
  0
LINE
  5
1D58
102
{ACAD_REACTORS
330
1DE6
102
}
330
A
100
AcDbEntity
  8
0
370
    13
100
AcDbLine
 10
59.22504540356019
 20
-84.22115537814683
 30
0.0
 11
53.67631199924753
 21
-84.22115537814681
 31
0.0
  0
LINE
  5
1D59
102
{ACAD_REACTORS
330
1DE6
102
}
330
A
100
AcDbEntity
  8
0
370
    13
100
AcDbLine
 10
52.4506787014038
 20
-79.64702963914588
 30
0.0
 11
53.67631199924753
 21
-84.22115537814681
 31
0.0
  0
LINE
  5
1D5A
102
{ACAD_REACTORS
330
1DE6
102
}
330
A
100
AcDbEntity
  8
0
370
    13
100
AcDbLine
 10
52.4506787014038
 20
-72.22437990833552
 30
0.0
 11
52.4506787014038
 21
-78.06967936995623
 31
0.0
  0
LINE
  5
1D5B
102
{ACAD_REACTORS
330
1DE6
102
}
330
A
100
AcDbEntity
  8
0
370
    13
100
AcDbLine
 10
51.2006787014038
 20
-79.36871747563291
 30
0.0
 11
52.4506787014038
 21
-78.06967936995627
 31
0.0
  0
LINE
  5
1D5C
102
{ACAD_REACTORS
330
1DE6
102
}
330
A
100
AcDbEntity
  8
0
370
    13
100
AcDbLine
 10
51.2006787014038
 20
-79.36871747563291
 30
0.0
 11
52.4506787014038
 21
-79.22437990833549
 31
0.0
  0
LINE
  5
1D5D
102
{ACAD_REACTORS
330
1DE6
102
}
330
A
100
AcDbEntity
  8
0
370
    13
100
AcDbLine
 10
52.4506787014038
 20
-79.2243799083355
 30
0.0
 11
52.4506787014038
 21
-79.64702963914577
 31
0.0
  0
LINE
  5
1D5E
102
{ACAD_REACTORS
330
1DE6
102
}
330
A
100
AcDbEntity
  8
0
370
    13
100
AcDbLine
 10
51.2006787014038
 20
-72.36871747563291
 30
0.0
 11
52.4506787014038
 21
-71.06967936995627
 31
0.0
  0
LINE
  5
1D5F
102
{ACAD_REACTORS
330
1DE6
102
}
330
A
100
AcDbEntity
  8
0
370
    13
100
AcDbLine
 10
51.2006787014038
 20
-72.36871747563291
 30
0.0
 11
52.4506787014038
 21
-72.22437990833549
 31
0.0
  0
LINE
  5
1D60
102
{ACAD_REACTORS
330
1DE6
102
}
330
A
100
AcDbEntity
  8
0
370
    13
100
AcDbLine
 10
60.4506787014038
 20
-79.64702963914588
 30
0.0
 11
59.22504540356019
 21
-84.22115537814681
 31
0.0
  0
LINE
  5
1D61
102
{ACAD_REACTORS
330
1DE6
102
}
330
A
100
AcDbEntity
  8
0
370
    13
100
AcDbLine
 10
60.4506787014038
 20
-74.60557775481854
 30
0.0
 11
60.4506787014038
 21
-79.64702963914596
 31
0.0
  0
LINE
  5
1D62
102
{ACAD_REACTORS
330
1DE6
102
}
330
A
100
AcDbEntity
  8
0
370
    13
100
AcDbLine
 10
61.7006787014038
 20
-73.3065396491418
 30
0.0
 11
60.4506787014038
 21
-73.4508772164392
 31
0.0
  0
LINE
  5
1D63
102
{ACAD_REACTORS
330
1DE6
102
}
330
A
100
AcDbEntity
  8
0
370
    13
100
AcDbLine
 10
61.7006787014038
 20
-73.3065396491418
 30
0.0
 11
60.4506787014038
 21
-74.60557775481845
 31
0.0
  0
LINE
  5
1D64
102
{ACAD_REACTORS
330
1DE6
102
}
330
A
100
AcDbEntity
  8
0
370
    13
100
AcDbLine
 10
60.4506787014038
 20
-46.60557775481848
 30
0.0
 11
60.4506787014038
 21
-52.45087721643924
 31
0.0
  0
LINE
  5
1D65
102
{ACAD_REACTORS
330
1DE6
102
}
330
A
100
AcDbEntity
  8
0
370
    13
100
AcDbLine
 10
52.4506787014038
 20
-44.22437990833549
 30
0.0
 11
52.4506787014038
 21
-50.06967936995633
 31
0.0
  0
LINE
  5
1D66
102
{ACAD_REACTORS
330
1DE6
102
}
330
A
100
AcDbEntity
  8
0
370
    13
100
AcDbLine
 10
60.4506787014038
 20
-46.60557775481851
 30
0.0
 11
52.4506787014038
 21
-51.2243799083355
 31
0.0
  0
LINE
  5
1D67
102
{ACAD_REACTORS
330
1DE6
102
}
330
A
100
AcDbEntity
  8
0
370
    13
100
AcDbLine
 10
60.4506787014038
 20
-45.45087721643921
 30
0.0
 11
52.4506787014038
 21
-50.06967936995628
 31
0.0
  0
LINE
  5
1D68
102
{ACAD_REACTORS
330
1DE6
102
}
330
A
100
AcDbEntity
  8
0
370
    13
100
AcDbLine
 10
61.7006787014038
 20
-45.30653964914179
 30
0.0
 11
51.2006787014038
 21
-51.3687174756329
 31
0.0
  0
LINE
  5
1D69
102
{ACAD_REACTORS
330
1DE6
102
}
330
A
100
AcDbEntity
  8
0
370
    13
100
AcDbLine
 10
60.4506787014038
 20
-59.45087721643921
 30
0.0
 11
52.4506787014038
 21
-64.06967936995627
 31
0.0
  0
LINE
  5
1D6A
102
{ACAD_REACTORS
330
1DE6
102
}
330
A
100
AcDbEntity
  8
0
370
    13
100
AcDbLine
 10
61.7006787014038
 20
-59.3065396491418
 30
0.0
 11
51.2006787014038
 21
-65.3687174756329
 31
0.0
  0
LINE
  5
1D6B
102
{ACAD_REACTORS
330
1DE6
102
}
330
A
100
AcDbEntity
  8
0
370
    13
100
AcDbLine
 10
60.4506787014038
 20
-60.60557775481851
 30
0.0
 11
52.4506787014038
 21
-65.22437990833549
 31
0.0
  0
LINE
  5
1D6C
102
{ACAD_REACTORS
330
1DE6
102
}
330
A
100
AcDbEntity
  8
0
370
    13
100
AcDbLine
 10
60.4506787014038
 20
-53.60557775481851
 30
0.0
 11
52.4506787014038
 21
-58.22437990833549
 31
0.0
  0
LINE
  5
1D6D
102
{ACAD_REACTORS
330
1DE6
102
}
330
A
100
AcDbEntity
  8
0
370
    13
100
AcDbLine
 10
61.7006787014038
 20
-52.30653964914179
 30
0.0
 11
51.2006787014038
 21
-58.3687174756329
 31
0.0
  0
LINE
  5
1D6E
102
{ACAD_REACTORS
330
1DE6
102
}
330
A
100
AcDbEntity
  8
0
370
    13
100
AcDbLine
 10
60.4506787014038
 20
-52.45087721643921
 30
0.0
 11
52.4506787014038
 21
-57.06967936995628
 31
0.0
  0
LINE
  5
1D6F
102
{ACAD_REACTORS
330
1DE6
102
}
330
A
100
AcDbEntity
  8
0
370
    13
100
AcDbLine
 10
52.4506787014038
 20
-58.22437990833555
 30
0.0
 11
52.4506787014038
 21
-64.06967936995627
 31
0.0
  0
LINE
  5
1D70
102
{ACAD_REACTORS
330
1DE6
102
}
330
A
100
AcDbEntity
  8
0
370
    13
100
AcDbLine
 10
51.2006787014038
 20
-65.3687174756329
 30
0.0
 11
52.4506787014038
 21
-64.06967936995627
 31
0.0
  0
LINE
  5
1D71
102
{ACAD_REACTORS
330
1DE6
102
}
330
A
100
AcDbEntity
  8
0
370
    13
100
AcDbLine
 10
51.2006787014038
 20
-65.3687174756329
 30
0.0
 11
52.4506787014038
 21
-65.22437990833549
 31
0.0
  0
LINE
  5
1D72
102
{ACAD_REACTORS
330
1DE6
102
}
330
A
100
AcDbEntity
  8
0
370
    13
100
AcDbLine
 10
52.4506787014038
 20
-51.22437990833552
 30
0.0
 11
52.4506787014038
 21
-57.06967936995636
 31
0.0
  0
LINE
  5
1D73
102
{ACAD_REACTORS
330
1DE6
102
}
330
A
100
AcDbEntity
  8
0
370
    13
100
AcDbLine
 10
51.2006787014038
 20
-58.3687174756329
 30
0.0
 11
52.4506787014038
 21
-57.06967936995628
 31
0.0
  0
LINE
  5
1D74
102
{ACAD_REACTORS
330
1DE6
102
}
330
A
100
AcDbEntity
  8
0
370
    13
100
AcDbLine
 10
51.2006787014038
 20
-58.3687174756329
 30
0.0
 11
52.4506787014038
 21
-58.22437990833549
 31
0.0
  0
LINE
  5
1D75
102
{ACAD_REACTORS
330
1DE6
102
}
330
A
100
AcDbEntity
  8
0
370
    13
100
AcDbLine
 10
51.2006787014038
 20
-51.3687174756329
 30
0.0
 11
52.4506787014038
 21
-50.06967936995628
 31
0.0
  0
LINE
  5
1D76
102
{ACAD_REACTORS
330
1DE6
102
}
330
A
100
AcDbEntity
  8
0
370
    13
100
AcDbLine
 10
51.2006787014038
 20
-51.3687174756329
 30
0.0
 11
52.4506787014038
 21
-51.2243799083355
 31
0.0
  0
LINE
  5
1D77
102
{ACAD_REACTORS
330
1DE6
102
}
330
A
100
AcDbEntity
  8
0
370
    13
100
AcDbLine
 10
60.4506787014038
 20
-53.60557775481854
 30
0.0
 11
60.4506787014038
 21
-59.45087721643924
 31
0.0
  0
LINE
  5
1D78
102
{ACAD_REACTORS
330
1DE6
102
}
330
A
100
AcDbEntity
  8
0
370
    13
100
AcDbLine
 10
60.4506787014038
 20
-60.60557775481851
 30
0.0
 11
60.4506787014038
 21
-66.45087721643921
 31
0.0
  0
LINE
  5
1D79
102
{ACAD_REACTORS
330
1DE6
102
}
330
A
100
AcDbEntity
  8
0
370
    13
100
AcDbLine
 10
61.7006787014038
 20
-66.3065396491418
 30
0.0
 11
60.4506787014038
 21
-66.45087721643921
 31
0.0
  0
LINE
  5
1D7A
102
{ACAD_REACTORS
330
1DE6
102
}
330
A
100
AcDbEntity
  8
0
370
    13
100
AcDbLine
 10
61.7006787014038
 20
-66.3065396491418
 30
0.0
 11
60.4506787014038
 21
-67.60557775481846
 31
0.0
  0
LINE
  5
1D7B
102
{ACAD_REACTORS
330
1DE6
102
}
330
A
100
AcDbEntity
  8
0
370
    13
100
AcDbLine
 10
61.7006787014038
 20
-59.3065396491418
 30
0.0
 11
60.4506787014038
 21
-59.45087721643921
 31
0.0
  0
LINE
  5
1D7C
102
{ACAD_REACTORS
330
1DE6
102
}
330
A
100
AcDbEntity
  8
0
370
    13
100
AcDbLine
 10
61.7006787014038
 20
-59.3065396491418
 30
0.0
 11
60.4506787014038
 21
-60.60557775481846
 31
0.0
  0
LINE
  5
1D7D
102
{ACAD_REACTORS
330
1DE6
102
}
330
A
100
AcDbEntity
  8
0
370
    13
100
AcDbLine
 10
61.7006787014038
 20
-52.30653964914179
 30
0.0
 11
60.4506787014038
 21
-52.45087721643921
 31
0.0
  0
LINE
  5
1D7E
102
{ACAD_REACTORS
330
1DE6
102
}
330
A
100
AcDbEntity
  8
0
370
    13
100
AcDbLine
 10
61.7006787014038
 20
-52.30653964914179
 30
0.0
 11
60.4506787014038
 21
-53.60557775481845
 31
0.0
  0
LINE
  5
1D7F
102
{ACAD_REACTORS
330
1DE6
102
}
330
A
100
AcDbEntity
  8
0
370
    13
100
AcDbLine
 10
60.4506787014038
 20
-31.45087721643921
 30
0.0
 11
52.4506787014038
 21
-36.06967936995627
 31
0.0
  0
LINE
  5
1D80
102
{ACAD_REACTORS
330
1DE6
102
}
330
A
100
AcDbEntity
  8
0
370
    13
100
AcDbLine
 10
61.7006787014038
 20
-38.3065396491418
 30
0.0
 11
51.2006787014038
 21
-44.3687174756329
 31
0.0
  0
LINE
  5
1D81
102
{ACAD_REACTORS
330
1DE6
102
}
330
A
100
AcDbEntity
  8
0
370
    13
100
AcDbLine
 10
60.4506787014038
 20
-38.4508772164392
 30
0.0
 11
52.4506787014038
 21
-43.06967936995627
 31
0.0
  0
LINE
  5
1D82
102
{ACAD_REACTORS
330
1DE6
102
}
330
A
100
AcDbEntity
  8
0
370
    13
100
AcDbLine
 10
60.4506787014038
 20
-39.60557775481851
 30
0.0
 11
52.4506787014038
 21
-44.22437990833549
 31
0.0
  0
LINE
  5
1D83
102
{ACAD_REACTORS
330
1DE6
102
}
330
A
100
AcDbEntity
  8
0
370
    13
100
AcDbLine
 10
60.4506787014038
 20
-32.60557775481851
 30
0.0
 11
52.4506787014038
 21
-37.22437990833549
 31
0.0
  0
LINE
  5
1D84
102
{ACAD_REACTORS
330
1DE6
102
}
330
A
100
AcDbEntity
  8
0
370
    13
100
AcDbLine
 10
61.7006787014038
 20
-31.30653964914179
 30
0.0
 11
51.2006787014038
 21
-37.3687174756329
 31
0.0
  0
LINE
  5
1D85
102
{ACAD_REACTORS
330
1DE6
102
}
330
A
100
AcDbEntity
  8
0
370
    13
100
AcDbLine
 10
52.4506787014038
 20
-37.22437990833549
 30
0.0
 11
52.4506787014038
 21
-43.06967936995635
 31
0.0
  0
LINE
  5
1D86
102
{ACAD_REACTORS
330
1DE6
102
}
330
A
100
AcDbEntity
  8
0
370
    13
100
AcDbLine
 10
51.2006787014038
 20
-44.3687174756329
 30
0.0
 11
52.4506787014038
 21
-43.06967936995627
 31
0.0
  0
LINE
  5
1D87
102
{ACAD_REACTORS
330
1DE6
102
}
330
A
100
AcDbEntity
  8
0
370
    13
100
AcDbLine
 10
51.2006787014038
 20
-44.3687174756329
 30
0.0
 11
52.4506787014038
 21
-44.22437990833549
 31
0.0
  0
LINE
  5
1D88
102
{ACAD_REACTORS
330
1DE6
102
}
330
A
100
AcDbEntity
  8
0
370
    13
100
AcDbLine
 10
51.2006787014038
 20
-37.3687174756329
 30
0.0
 11
52.4506787014038
 21
-37.22437990833549
 31
0.0
  0
LINE
  5
1D89
102
{ACAD_REACTORS
330
1DE6
102
}
330
A
100
AcDbEntity
  8
0
370
    13
100
AcDbLine
 10
51.2006787014038
 20
-37.3687174756329
 30
0.0
 11
52.4506787014038
 21
-36.06967936995627
 31
0.0
  0
LINE
  5
1D8A
102
{ACAD_REACTORS
330
1DE6
102
}
330
A
100
AcDbEntity
  8
0
370
    13
100
AcDbLine
 10
60.4506787014038
 20
-32.60557775481851
 30
0.0
 11
60.4506787014038
 21
-38.4508772164392
 31
0.0
  0
LINE
  5
1D8B
102
{ACAD_REACTORS
330
1DE6
102
}
330
A
100
AcDbEntity
  8
0
370
    13
100
AcDbLine
 10
60.4506787014038
 20
-39.60557775481854
 30
0.0
 11
60.4506787014038
 21
-45.45087721643923
 31
0.0
  0
LINE
  5
1D8C
102
{ACAD_REACTORS
330
1DE6
102
}
330
A
100
AcDbEntity
  8
0
370
    13
100
AcDbLine
 10
61.7006787014038
 20
-45.30653964914179
 30
0.0
 11
60.4506787014038
 21
-45.45087721643921
 31
0.0
  0
LINE
  5
1D8D
102
{ACAD_REACTORS
330
1DE6
102
}
330
A
100
AcDbEntity
  8
0
370
    13
100
AcDbLine
 10
61.7006787014038
 20
-45.30653964914179
 30
0.0
 11
60.4506787014038
 21
-46.60557775481845
 31
0.0
  0
LINE
  5
1D8E
102
{ACAD_REACTORS
330
1DE6
102
}
330
A
100
AcDbEntity
  8
0
370
    13
100
AcDbLine
 10
61.7006787014038
 20
-38.3065396491418
 30
0.0
 11
60.4506787014038
 21
-38.4508772164392
 31
0.0
  0
LINE
  5
1D8F
102
{ACAD_REACTORS
330
1DE6
102
}
330
A
100
AcDbEntity
  8
0
370
    13
100
AcDbLine
 10
61.7006787014038
 20
-38.3065396491418
 30
0.0
 11
60.4506787014038
 21
-39.60557775481845
 31
0.0
  0
LINE
  5
1D90
102
{ACAD_REACTORS
330
1DE6
102
}
330
A
100
AcDbEntity
  8
0
370
    13
100
AcDbLine
 10
61.7006787014038
 20
-31.30653964914179
 30
0.0
 11
60.4506787014038
 21
-32.60557775481845
 31
0.0
  0
LINE
  5
1D91
102
{ACAD_REACTORS
330
1DE6
102
}
330
A
100
AcDbEntity
  8
0
370
    13
100
AcDbLine
 10
61.7006787014038
 20
-31.30653964914179
 30
0.0
 11
60.4506787014038
 21
-31.45087721643921
 31
0.0
  0
DIMENSION
  5
1DF5
330
A
100
AcDbEntity
  8
寸法
370
    13
100
AcDbDimension
  2
*D5
 10
89.06610442475676
 20
4.780244922761262
 30
0.0
 11
87.06610442475676
 21
11.38024492759303
 31
0.0
 70
    32
 71
     5
 42
13.2000000096635
  3
ISO-25 1／10
100
AcDbAlignedDimension
 13
68.44753848265885
 23
17.98024493242477
 33
0.0
 14
83.84342838294584
 24
4.780244922761263
 34
0.0
 50
270.0
100
AcDbRotatedDimension
1001
ACAD
1000
DSTYLE
1002
{
1070
   279
1070
     1
1002
}
  0
ENDSEC
  0
SECTION
  2
OBJECTS
  0
DICTIONARY
  5
19
330
0
100
AcDbDictionary
281
     1
  3
ACAD_GROUP
350
1A
  3
ACAD_IMAGE_VARS
350
EE2
  3
ACAD_LAYOUT
350
1E
  3
ACAD_MLINESTYLE
350
1B
  3
ACAD_PLOTSETTINGS
350
22
  3
ACAD_PLOTSTYLENAME
350
1F
  3
ACAD_WIPEOUT_VARS
350
23
  0
DICTIONARY
  5
EEA
330
2
100
AcDbDictionary
280
     1
281
     1
  3
ACAD_LAYERFILTERS
360
EEB
  0
DICTIONARY
  5
1A
102
{ACAD_REACTORS
330
19
102
}
330
19
100
AcDbDictionary
281
     1
  3
*A1
350
1857
  3
*A2
350
1DE9
  3
*A3
350
1DEA
  3
*A4
350
1DEB
  3
*A5
350
1E1B
  3
*A6
350
1A4E
  3
*A7
350
1A51
  3
*A8
350
1B17
  3
*A9
350
1BCC
  3
*A10
350
1BD0
  3
*A11
350
1DE6
  3
*A12
350
1DE7
  3
*A13
350
1DE8
  0
RASTERVARIABLES
  5
EE2
102
{ACAD_REACTORS
330
19
102
}
330
19
100
AcDbRasterVariables
 90
        0
 70
     1
 71
     1
 72
     0
  0
DICTIONARY
  5
1E
102
{ACAD_REACTORS
330
19
102
}
330
19
100
AcDbDictionary
281
     1
  3
Layout1
350
21
  3
Model
350
20
  0
DICTIONARY
  5
1B
102
{ACAD_REACTORS
330
19
102
}
330
19
100
AcDbDictionary
281
     1
  3
Standard
350
1C
  0
DICTIONARY
  5
22
102
{ACAD_REACTORS
330
19
102
}
330
19
100
AcDbDictionary
281
     1
  0
ACDBDICTIONARYWDFLT
  5
1F
102
{ACAD_REACTORS
330
19
102
}
330
19
100
AcDbDictionary
281
     1
  3
Normal
350
1D
100
AcDbDictionaryWithDefault
340
1D
  0
ACAD_PROXY_OBJECT
  5
23
330
19
100
AcDbProxyObject
 90
      499
 91
      521
 95
   393239
 70
     0
 93
       10
310
4040
 94
        0
  0
DICTIONARY
  5
EEB
102
{ACAD_REACTORS
330
EEA
102
}
330
EEA
100
AcDbDictionary
280
     1
281
     1
  3
-100
360
EEC
  3
-50
360
EED
  3
-ben
360
EEE
  3
-H
360
EEF
  3
-T
360
EF0
  3
$
360
EF1
  3
$0$
360
EF2
  3
0
360
EF3
  3
0-
360
EF4
  3
00
360
EF5
  3
01
360
EF6
  3
01KUTAI
360
EF7
  3
01全体計画平面図
360
EF8
  3
02現況平面図
360
EF9
  3
03撤去平面図
360
EFA
  3
04造成平面図
360
EFB
  3
05
360
EFC
  3
05施設平面図
360
EFD
  3
06
360
EFE
  3
06siki
360
EFF
  3
06siki2
360
F00
  3
06排水平面図
360
F01
  3
07
360
F02
  3
07給水平面図
360
F03
  3
0割付平面図
360
F04
  3
0潅水平面
360
F05
  3
0計画平面
360
F06
  3
0高木植栽
360
F07
  3
0施設平面
360
F08
  3
0床内
360
F09
  3
0床壁
360
F0A
  3
0照明配置図
360
F0B
  3
0詳細図
360
F0C
  3
0植栽基盤
360
F0D
  3
0全体工区区分図
360
F0E
  3
0総合図off
360
F0F
  3
0総合図枠
360
F10
  3
0低木
360
F11
  3
0排水平面
360
F12
  3
0平詳枠
360
F13
  3
0擁壁平面図
360
F14
  3
1
360
F15
  3
10
360
F16
  3
100
360
F17
  3
10植栽平面図
360
F18
  3
11
360
F19
  3
1111
360
F1A
  3
11寸法図
360
F1B
  3
12
360
F1C
  3
19
360
F1D
  3
１Ｆ床伏OFF
360
F1E
  3
1階
360
F1F
  3
1床
360
F20
  3
1芯
360
F21
  3
1芯線
360
F22
  3
20
360
F23
  3
21
360
F24
  3
250
360
F25
  3
2fmiage
360
F26
  3
2躯体
360
F27
  3
2断面
360
F28
  3
2壁
360
F29
  3
300
360
F2A
  3
32
360
F2B
  3
333
360
F2C
  3
37
360
F2D
  3
3D
360
F2E
  3
3開口
360
F2F
  3
3見掛り
360
F30
  3
3天井内
360
F31
  3
41
360
F32
  3
4仕上げ
360
F33
  3
4天井
360
F34
  3
5
360
F35
  3
50
360
F36
  3
50off
360
F37
  3
51-52
360
F38
  3
555
360
F39
  3
5寸法
360
F3A
  3
5文字
360
F3B
  3
6
360
F3C
  3
66-躯体図
360
F3D
  3
66躯体図
360
F3E
  3
6記号
360
F3F
  3
6文字
360
F40
  3
6保留
360
F41
  3
767
360
F42
  3
767SE13-0...$
360
F43
  3
767SE13-07-99$0$
360
F44
  3
7記号
360
F45
  3
8
360
F46
  3
8寸法
360
F47
  3
8設備
360
F48
  3
9文字
360
F49
  3
9目地
360
F4A
  3
A
360
F4B
  3
A-
360
F4C
  3
A(枠･表)を表示
360
F4D
  3
A01
360
F4E
  3
A1.DEMO-KEY NOTE
360
F4F
  3
A2. CONS-KEY NOTE
360
F50
  3
A21
360
F51
  3
A3
360
F52
  3
A3. RCP-LAYER
360
F53
  3
A3D. RCP_DEMO-KEY NOTE
360
F54
  3
A4. P&T- KEY NOTE
360
F55
  3
A4D. EL_DEMO-KEY NOTE
360
F56
  3
A5. FINISH-KEY NOTE
360
F57
  3
A6. FURN-KEY NOTE
360
F58
  3
aa
360
F59
  3
aaa
360
F5A
  3
AB棟
360
F5B
  3
ＡＢ棟
360
F5C
  3
ACTIVE
360
F5D
  3
ACTIVE2
360
F5E
  3
ALC
360
F5F
  3
ALL
360
F60
  3
all選択
360
F61
  3
AMENAGEMENT
360
F62
  3
AQ
360
F63
  3
ARBOL
360
F64
  3
AREA
360
F65
  3
AREA-SG
360
F66
  3
AS1
360
F67
  3
aハッチング
360
F68
  3
A空調
360
F69
  3
B
360
F6A
  3
B(基準)を表示
360
F6B
  3
B2
360
F6C
  3
B3
360
F6D
  3
BAL
360
F6E
  3
baru
360
F6F
  3
baru2
360
F70
  3
BASE
360
F71
  3
bb
360
F72
  3
bbbb
360
F73
  3
beam
360
F74
  3
blocchi
360
F75
  3
blue
360
F76
  3
BSM
360
F77
  3
b階段
360
F78
  3
B電気
360
F79
  3
c
360
F7A
  3
c-block
360
F7B
  3
c-block-2
360
F7C
  3
C(寸･文･記)を表示
360
F7D
  3
cajetin
360
F7E
  3
cc
360
F7F
  3
CD06
360
F80
  3
ＣＤ棟
360
F81
  3
ceiling
360
F82
  3
CEILINGS XREF
360
F83
  3
CEL
360
F84
  3
che
360
F85
  3
chika
360
F86
  3
CLG
360
F87
  3
COL
360
F88
  3
cold beam
360
F89
  3
colu
360
F8A
  3
com
360
F8B
  3
con
360
F8C
  3
CRG
360
F8D
  3
cyan
360
F8E
  3
C衛生
360
F8F
  3
C街区関連
360
F90
  3
c雑金物
360
F91
  3
C打計画図
360
F92
  3
D
360
F93
  3
D(表現補助)を表示
360
F94
  3
Ｄ・墓地　施設平面
360
F95
  3
D16
360
F96
  3
DASHED
360
F97
  3
DASHED2
360
F98
  3
DEMO
360
F99
  3
DEMOLITION
360
F9A
  3
detail
360
F9B
  3
details
360
F9C
  3
DHED
360
F9D
  3
Dim
360
F9E
  3
disegno
360
F9F
  3
DOORS
360
FA0
  3
DR
360
FA1
  3
DT
360
FA2
  3
d外構
360
FA3
  3
Ｄ街区低木
360
FA4
  3
D割付平面
360
FA5
  3
Ｄ給水設備
360
FA6
  3
Ｄ計画高平面
360
FA7
  3
Ｄ計画平面
360
FA8
  3
Ｄ工事区分
360
FA9
  3
Ｄ高木植栽
360
FAA
  3
Ｄ施設平面
360
FAB
  3
Ｄ照明設備
360
FAC
  3
Ｄ低木
360
FAD
  3
Ｄ電気設備
360
FAE
  3
Ｄ土壌改良
360
FAF
  3
Ｄ排水平面
360
FB0
  3
D舗装平面
360
FB1
  3
Ｄ墓地施設平面
360
FB2
  3
D墓地排水
360
FB3
  3
E
360
FB4
  3
E(点線系)を表示
360
FB5
  3
EEEE
360
FB6
  3
EISEI
360
FB7
  3
elec
360
FB8
  3
ERAS1F
360
FB9
  3
existing
360
FBA
  3
Exit
360
FBB
  3
F
360
FBC
  3
F(断面)を表示
360
FBD
  3
F1
360
FBE
  3
face4
360
FBF
  3
FC_CLADDING
360
FC0
  3
FENCE
360
FC1
  3
FF
360
FC2
  3
FH
360
FC3
  3
FILTER1
360
FC4
  3
fini
360
FC5
  3
finish
360
FC6
  3
FIRE
360
FC7
  3
fixture
360
FC8
  3
fl
360
FC9
  3
Floor
360
FCA
  3
FLOOR PLAN
360
FCB
  3
fr
360
FCC
  3
freeze
360
FCD
  3
FRZ
360
FCE
  3
Fugou
360
FCF
  3
FUGOU-TATEGU
360
FD0
  3
FUKI
360
FD1
  3
FURN
360
FD2
  3
FURNITURE
360
FD3
  3
FUSE_00
360
FD4
  3
G
360
FD5
  3
G(開口)を表示
360
FD6
  3
GAIKOU
360
FD7
  3
gel
360
FD8
  3
gen
360
FD9
  3
gondora
360
FDA
  3
green
360
FDB
  3
GRID
360
FDC
  3
gris
360
FDD
  3
H
360
FDE
  3
H-
360
FDF
  3
H-SIN
360
FE0
  3
H(見掛)を表示
360
FE1
  3
HA
360
FE2
  3
haikin
360
FE3
  3
HAISEN
360
FE4
  3
HARI
360
FE5
  3
hasira
360
FE6
  3
HATCH
360
FE7
  3
HCP
360
FE8
  3
HEISHO
360
FE9
  3
HEISHO2
360
FEA
  3
HIDDEN
360
FEB
  3
HOJO
360
FEC
  3
hollywood
360
FED
  3
HOTEL
360
FEE
  3
huse
360
FEF
  3
HYOKI
360
FF0
  3
HYOUKI
360
FF1
  3
i
360
FF2
  3
I(二次部材系))を表示
360
FF3
  3
I2
360
FF4
  3
i2cl
360
FF5
  3
i5
360
FF6
  3
i9
360
FF7
  3
in
360
FF8
  3
INSERT図
360
FF9
  3
ISSUE
360
FFA
  3
J
360
FFB
  3
K
360
FFC
  3
KABE
360
FFD
  3
KABESHIN
360
FFE
  3
KAGU
360
FFF
  3
key
360
1000
  3
KI
360
1001
  3
KIGO
360
1002
  3
KIJUN
360
1003
  3
kiso
360
1004
  3
KSIN
360
1005
  3
kui
360
1006
  3
KUTAI
360
1007
  3
L
360
1008
  3
LEGEND
360
1009
  3
LGS
360
100A
  3
light
360
100B
  3
LIST
360
100C
  3
lixo
360
100D
  3
LOCK
360
100E
  3
LTA
360
100F
  3
Ｌ建具
360
1010
  3
M
360
1011
  3
MA
360
1012
  3
MACONNERIE
360
1013
  3
magenta
360
1014
  3
magenta-bleu
360
1015
  3
maji
360
1016
  3
MAJIKIRI
360
1017
  3
marco
360
1018
  3
MB
360
1019
  3
meji
360
101A
  3
merceologico
360
101B
  3
MILL
360
101C
  3
MILLWORK
360
101D
  3
miwa
360
101E
  3
MOJI
360
101F
  3
MOJI100
360
1020
  3
N
360
1021
  3
N-
360
1022
  3
NAM
360
1023
  3
NEW
360
1024
  3
NHK
360
1025
  3
no xref
360
1026
  3
note
360
1027
  3
NUM
360
1028
  3
NUMB
360
1029
  3
O
360
102A
  3
OF
360
102B
  3
OFF
360
102C
  3
on
360
102D
  3
option 1
360
102E
  3
option 2
360
102F
  3
OUTLINE
360
1030
  3
P
360
1031
  3
pa
360
1032
  3
PALFOND
360
1033
  3
PAT
360
1034
  3
PC
360
1035
  3
PISO
360
1036
  3
PLAN
360
1037
  3
PLMB
360
1038
  3
plot
360
1039
  3
PLUMB
360
103A
  3
PNL
360
103B
  3
power
360
103C
  3
PRT
360
103D
  3
q
360
103E
  3
R
360
103F
  3
rack
360
1040
  3
RC
360
1041
  3
RCP
360
1042
  3
rm
360
1043
  3
RMTAGS
360
1044
  3
RNUM
360
1045
  3
ROOM
360
1046
  3
roomno
360
1047
  3
rouge
360
1048
  3
rtkl
360
1049
  3
S
360
104A
  3
saciencewold
360
104B
  3
SETUBI
360
104C
  3
SHITU
360
104D
  3
SHITUMEI
360
104E
  3
SIAG
360
104F
  3
SIAG-N
360
1050
  3
SIAG3
360
1051
  3
sin
360
1052
  3
Sinm
360
1053
  3
SITA
360
1054
  3
siyah
360
1055
  3
SS
360
1056
  3
ST
360
1057
  3
STA
360
1058
  3
stairs
360
1059
  3
SUGA5
360
105A
  3
SUNP
360
105B
  3
SUNP100
360
105C
  3
T
360
105D
  3
TAKASA
360
105E
  3
TATE161
360
105F
  3
TATEGU
360
1060
  3
ten
360
1061
  3
TENJYOU
360
1062
  3
TENJYOUNAI
360
1063
  3
test
360
1064
  3
text
360
1065
  3
thaw
360
1066
  3
TITL
360
1067
  3
tnjyou
360
1068
  3
tori
360
1069
  3
TORISHIN
360
106A
  3
tr
360
106B
  3
TSIN
360
106C
  3
TXT
360
106D
  3
UNFREEZ
360
106E
  3
UNROCK
360
106F
  3
wada
360
1070
  3
waku
360
1071
  3
X
360
1072
  3
X(敷地)を表示
360
1073
  3
xref
360
1074
  3
YAJI
360
1075
  3
yellow
360
1076
  3
YUKA
360
1077
  3
yその他
360
1078
  3
Z
360
1079
  3
ZATU
360
107A
  3
z図枠
360
107B
  3
к
360
107C
  3
перегородки
360
107D
  3
イベント給水
360
107E
  3
ガラス
360
107F
  3
キ-プラン
360
1080
  3
キープラン
360
1081
  3
さーくる
360
1082
  3
シェルター
360
1083
  3
すべてに反映
360
1084
  3
スロープ
360
1085
  3
タイル割付平面図
360
1086
  3
ﾃｷｽﾄのみ表示
360
1087
  3
ハッチング
360
1088
  3
フリーズ
360
1089
  3
フリーズof
360
108A
  3
ﾌﾘｰｽﾞ画層非表示
360
108B
  3
ﾌﾘｰｽﾞ画面非表示
360
108C
  3
ﾌﾘｰｽﾞ解除
360
108D
  3
フリーズ解除
360
108E
  3
ﾌﾟﾚｾﾞﾝ枠
360
108F
  3
マーク
360
1090
  3
ﾒｲﾝﾌﾟﾗｻﾞ
360
1091
  3
レベル
360
1092
  3
ロック
360
1093
  3
一括非表示
360
1094
  3
一般図
360
1095
  3
印刷
360
1096
  3
荏原機器
360
1097
  3
荏原機器基礎
360
1098
  3
衛生設備図
360
1099
  3
黄色
360
109A
  3
下階
360
109B
  3
下地
360
109C
  3
外構
360
109D
  3
外部参照－建築
360
109E
  3
外部参照除く
360
109F
  3
割り付け平面図
360
10A0
  3
割付平面図
360
10A1
  3
潅水平面
360
10A2
  3
基
360
10A3
  3
基準
360
10A4
  3
基準階
360
10A5
  3
基礎OFF
360
10A6
  3
基礎伏
360
10A7
  3
基礎伏図
360
10A8
  3
基盤改良平面図
360
10A9
  3
既存杭
360
10AA
  3
機器
360
10AB
  3
機器基礎
360
10AC
  3
記号
360
10AD
  3
給水設備平面図
360
10AE
  3
給水平面
360
10AF
  3
区画
360
10B0
  3
躯体
360
10B1
  3
躯体図
360
10B2
  3
空調jv
360
10B3
  3
空調設備図
360
10B4
  3
郡川
360
10B5
  3
型枠計画図
360
10B6
  3
計画高平面図
360
10B7
  3
計画平面
360
10B8
  3
計画平面図
360
10B9
  3
劇場ﾌﾟﾗｻﾞ
360
10BA
  3
劇場棟
360
10BB
  3
建具
360
10BC
  3
建築接地図
360
10BD
  3
見上げ
360
10BE
  3
現在非表示画層
360
10BF
  3
光天井
360
10C0
  3
公園
360
10C1
  3
工事区分図
360
10C2
  3
工事区分図AB
360
10C3
  3
工事区分図CD
360
10C4
  3
高さ
360
10C5
  3
高木植栽平面
360
10C6
  3
高木平面図
360
10C7
  3
座席のみ
360
10C8
  3
作業
360
10C9
  3
参考
360
10CA
  3
山止根切計画図
360
10CB
  3
仕
360
10CC
  3
仕上
360
10CD
  3
仕上図
360
10CE
  3
使用中
360
10CF
  3
施設配置図
360
10D0
  3
施設平面
360
10D1
  3
施設平面図
360
10D2
  3
紫
360
10D3
  3
床伏図
360
10D4
  3
昇降機
360
10D5
  3
照明
360
10D6
  3
照明Ｃ１
360
10D7
  3
照明Ｃ２
360
10D8
  3
照明配置図
360
10D9
  3
詳細
360
10DA
  3
詳細図
360
10DB
  3
上階躯体図
360
10DC
  3
植栽
360
10DD
  3
植栽基盤平面
360
10DE
  3
植栽現況
360
10DF
  3
植栽高木AB
360
10E0
  3
植栽高木CD
360
10E1
  3
植栽低木AB
360
10E2
  3
植栽低木ＣＤ
360
10E3
  3
色番号8
360
10E4
  3
申請用
360
10E5
  3
芯
360
10E6
  3
芯関係
360
10E7
  3
水
360
10E8
  3
水色
360
10E9
  3
寸法
360
10EA
  3
製作
360
10EB
  3
製作-躯体
360
10EC
  3
製作-建築
360
10ED
  3
製作-昇降機
360
10EE
  3
青
360
10EF
  3
設備
360
10F0
  3
設備プロット
360
10F1
  3
全階平面図
360
10F2
  3
総合仮設図
360
10F3
  3
総合図
360
10F4
  3
足場計画図
360
10F5
  3
地下埋設
360
10F6
  3
中野
360
10F7
  3
低木植栽平面
360
10F8
  3
低木平面図
360
10F9
  3
鉄骨
360
10FA
  3
鉄骨建方計画図
360
10FB
  3
天井インサート図
360
10FC
  3
天井総合図
360
10FD
  3
天井伏図
360
10FE
  3
天伏
360
10FF
  3
電気設備図
360
1100
  3
土壌改良
360
1101
  3
土木計画平面図
360
1102
  3
道路
360
1103
  3
道路関係図
360
1104
  3
排水
360
1105
  3
排水設備平面図
360
1106
  3
排水平面
360
1107
  3
配管
360
1108
  3
非表示
360
1109
  3
非表示ﾚｲﾔｰ
360
110A
  3
表示
360
110B
  3
表示・非表示
360
110C
  3
表示2
360
110D
  3
分割枠
360
110E
  3
平面詳細図
360
110F
  3
平面図
360
1110
  3
平面総合図
360
1111
  3
変更分
360
1112
  3
舗装平面
360
1113
  3
舗装平面C1
360
1114
  3
舗装平面C2
360
1115
  3
舗装平面図
360
1116
  3
法規チェック－区画
360
1117
  3
法規チェック－範囲
360
1118
  3
鳳文字入力
360
1119
  3
防災
360
111A
  3
名称
360
111B
  3
面積
360
111C
  3
擁壁平面図
360
111D
  3
用途色塗
360
111E
  3
立面図
360
111F
  3
梁
360
1120
  3
緑
360
1121
  0
GROUP
  5
1857
102
{ACAD_REACTORS
330
1A
102
}
330
1A
100
AcDbGroup
300

 70
     1
 71
     1
  0
GROUP
  5
1DE9
102
{ACAD_REACTORS
330
1A
102
}
330
1A
100
AcDbGroup
300

 70
     1
 71
     1
340
1C38
340
1C37
340
1C36
340
1C35
340
1C34
340
1C33
340
1C32
340
1C31
340
1C30
340
1C2F
340
1C2E
340
1C2D
340
1C2C
340
1C2B
340
1C2A
340
1C29
340
1C28
340
1C27
340
1C26
340
1D42
340
1D31
340
1D30
340
1D1A
340
1D19
340
1D2E
340
1D2D
340
1D2C
340
1D2B
340
1D2A
340
1D29
340
1D28
340
1D33
340
1D35
340
1D41
340
1D40
340
1D3F
340
1D3E
340
1D3D
340
1D3C
340
1D3B
340
1D3A
340
1D32
340
1D39
340
1D38
340
1D37
340
1D36
  0
GROUP
  5
1DEA
102
{ACAD_REACTORS
330
1A
102
}
330
1A
100
AcDbGroup
300

 70
     1
 71
     1
340
1C19
340
1C18
340
1C17
340
1C1A
340
1C16
340
1C15
340
1C14
340
1C13
340
1C12
340
1C11
340
1C10
340
1CF1
  0
GROUP
  5
1DEB
102
{ACAD_REACTORS
330
1A
102
}
330
1A
100
AcDbGroup
300

 70
     1
 71
     1
340
1CF2
340
1C24
340
1C23
340
1C22
340
1C21
340
1C20
340
1C1F
340
1C25
340
1C1E
340
1C1D
340
1C1C
340
1C1B
  0
GROUP
  5
1E1B
102
{ACAD_REACTORS
330
1A
102
}
330
1A
100
AcDbGroup
300

 70
     1
 71
     1
340
1C0D
340
1C0E
340
1C0F
  0
GROUP
  5
1A4E
102
{ACAD_REACTORS
330
1A
102
}
330
1A
100
AcDbGroup
300

 70
     1
 71
     1
  0
GROUP
  5
1A51
102
{ACAD_REACTORS
330
1A
102
}
330
1A
100
AcDbGroup
300

 70
     1
 71
     1
  0
GROUP
  5
1B17
102
{ACAD_REACTORS
330
1A
102
}
330
1A
100
AcDbGroup
300

 70
     1
 71
     1
  0
GROUP
  5
1BCC
102
{ACAD_REACTORS
330
1A
102
}
330
1A
100
AcDbGroup
300

 70
     1
 71
     1
  0
GROUP
  5
1BD0
102
{ACAD_REACTORS
330
1A
102
}
330
1A
100
AcDbGroup
300

 70
     1
 71
     1
  0
GROUP
  5
1DE6
102
{ACAD_REACTORS
330
1A
102
}
330
1A
100
AcDbGroup
300

 70
     1
 71
     1
340
1CB5
340
1CB6
340
1C58
340
1CFF
340
1D00
340
1CFD
340
1D01
340
1D05
340
1D07
340
1CFC
340
1C57
340
1CFB
340
1CFA
340
1D04
340
1D50
340
1D51
340
1D52
340
1D53
340
1D54
340
1D55
340
1D56
340
1D57
340
1D58
340
1D59
340
1D5A
340
1D5B
340
1D5C
340
1D5D
340
1D5E
340
1D5F
340
1D60
340
1D61
340
1D62
340
1D63
340
1D64
340
1D65
340
1D66
340
1D67
340
1D68
340
1D69
340
1D6A
340
1D6B
340
1D6C
340
1D6D
340
1D6E
340
1D6F
340
1D70
340
1D71
340
1D72
340
1D73
340
1D74
340
1D75
340
1D76
340
1D77
340
1D78
340
1D79
340
1D7A
340
1D7B
340
1D7C
340
1D7D
340
1D7E
340
1D7F
340
1D80
340
1D81
340
1D82
340
1D83
340
1D84
340
1D85
340
1D86
340
1D87
340
1D88
340
1D89
340
1D8A
340
1D8B
340
1D8C
340
1D8D
340
1D8E
340
1D8F
340
1D90
340
1D91
  0
GROUP
  5
1DE7
102
{ACAD_REACTORS
330
1A
102
}
330
1A
100
AcDbGroup
300

 70
     1
 71
     1
340
1C52
340
1C56
340
1C53
340
1C54
340
1C55
340
1C4E
340
1C4F
340
1C50
340
1C51
  0
GROUP
  5
1DE8
102
{ACAD_REACTORS
330
1A
102
}
330
1A
100
AcDbGroup
300

 70
     1
 71
     1
340
1C4D
340
1C4C
340
1C4B
340
1C4A
340
1C49
340
1C48
340
1C47
340
1C46
340
1C45
340
1C44
340
1C43
340
1C42
340
1C41
340
1C40
340
1C3F
340
1C3E
340
1C3D
340
1C3C
340
1C3B
340
1C3A
340
1C39
340
1CD9
340
1CE8
340
1CDA
340
1CD8
340
1CD7
340
1CD0
340
1CD4
340
1CCF
340
1CCE
340
1CD6
340
1CC6
340
1CD5
340
1CD3
340
1CE7
340
1CE6
340
1CE5
340
1CE4
340
1CE3
340
1CE2
340
1CD2
340
1CD1
340
1CC5
  0
LAYOUT
  5
21
102
{ACAD_REACTORS
330
1E
102
}
330
1E
100
AcDbPlotSettings
  1

  2

  4

  6

 40
0.0
 41
0.0
 42
0.0
 43
0.0
 44
0.0
 45
0.0
 46
0.0
 47
0.0
 48
0.0
 49
0.0
140
0.0
141
0.0
142
1.0
143
1.0
 70
     0
 72
     0
 73
     0
 74
     0
  7

 75
     0
147
1.0
148
0.0
149
0.0
100
AcDbLayout
  1
Layout1
 70
     0
 71
     1
 10
0.0
 20
0.0
 11
12.0
 21
9.0
 12
0.0
 22
0.0
 32
0.0
 14
1.000000000000000E+20
 24
1.000000000000000E+20
 34
1.000000000000000E+20
 15
-1.000000000000000E+20
 25
-1.000000000000000E+20
 35
-1.000000000000000E+20
146
0.0
 13
0.0
 23
0.0
 33
0.0
 16
1.0
 26
0.0
 36
0.0
 17
0.0
 27
1.0
 37
0.0
 76
     0
330
B
  0
LAYOUT
  5
20
102
{ACAD_REACTORS
330
1E
102
}
330
1E
100
AcDbPlotSettings
  1

  2

  4

  6

 40
0.0
 41
0.0
 42
0.0
 43
0.0
 44
0.0
 45
0.0
 46
0.0
 47
0.0
 48
0.0
 49
0.0
140
0.0
141
0.0
142
1.0
143
1.0
 70
  1024
 72
     0
 73
     0
 74
     0
  7

 75
     0
147
1.0
148
0.0
149
0.0
100
AcDbLayout
  1
Model
 70
     0
 71
     0
 10
0.0
 20
0.0
 11
0.0
 21
0.0
 12
0.0
 22
0.0
 32
0.0
 14
0.0
 24
0.0
 34
0.0
 15
0.0
 25
0.0
 35
0.0
146
0.0
 13
0.0
 23
0.0
 33
0.0
 16
0.0
 26
0.0
 36
0.0
 17
0.0
 27
0.0
 37
0.0
 76
     0
330
A
  0
MLINESTYLE
  5
1C
102
{ACAD_REACTORS
330
1B
102
}
330
1B
100
AcDbMlineStyle
  2
STANDARD
 70
     0
  3

 62
     0
 51
90.0
 52
90.0
 71
     2
 49
0.5
 62
   256
  6
BYLAYER
 49
-0.5
 62
   256
  6
BYLAYER
  0
ACDBPLACEHOLDER
  5
1D
102
{ACAD_REACTORS
330
1F
102
}
330
1F
  0
XRECORD
  5
EEC
102
{ACAD_REACTORS
330
EEB
102
}
330
EEB
100
AcDbXrecord
280
     1
  1
-100
  1
*-100
  1
*
  1
*
 70
     0
  1
*
  1
*
  0
XRECORD
  5
EED
102
{ACAD_REACTORS
330
EEB
102
}
330
EEB
100
AcDbXrecord
280
     1
  1
-50
  1
*-50
  1
*
  1
*
 70
     0
  1
*
  1
*
  0
XRECORD
  5
EEE
102
{ACAD_REACTORS
330
EEB
102
}
330
EEB
100
AcDbXrecord
280
     1
  1
-ben
  1
ben*
  1
*
  1
*
 70
     0
  1
*
  1
*
  0
XRECORD
  5
EEF
102
{ACAD_REACTORS
330
EEB
102
}
330
EEB
100
AcDbXrecord
280
     1
  1
-H
  1
00*,01*,02*,05*,1*,2*,3*,4*,5*,6*,8*
  1
*
  1
*
 70
     0
  1
*
  1
*
  0
XRECORD
  5
EF0
102
{ACAD_REACTORS
330
EEB
102
}
330
EEB
100
AcDbXrecord
280
     1
  1
-T
  1
00*,01*,03*,05*,1*,20*,21*,22*,23*,24*,25*,26*,27*,29*,2a*,3*,4*,7*,9*
  1
*
  1
*
 70
     0
  1
*
  1
*
  0
XRECORD
  5
EF1
102
{ACAD_REACTORS
330
EEB
102
}
330
EEB
100
AcDbXrecord
280
     1
  1
$
  1
*$0$*
  1
*
  1
*
 70
     0
  1
*
  1
*
  0
XRECORD
  5
EF2
102
{ACAD_REACTORS
330
EEB
102
}
330
EEB
100
AcDbXrecord
280
     1
  1
$0$
  1
$0$*
  1
*
  1
*
 70
     0
  1
*
  1
*
  0
XRECORD
  5
EF3
102
{ACAD_REACTORS
330
EEB
102
}
330
EEB
100
AcDbXrecord
280
     1
  1
0
  1
0*
  1
*
  1
*
 70
     0
  1
*
  1
*
  0
XRECORD
  5
EF4
102
{ACAD_REACTORS
330
EEB
102
}
330
EEB
100
AcDbXrecord
280
     1
  1
0-
  1
0-*
  1
*
  1
*
 70
     0
  1
*
  1
*
  0
XRECORD
  5
EF5
102
{ACAD_REACTORS
330
EEB
102
}
330
EEB
100
AcDbXrecord
280
     1
  1
00
  1
*-100
  1
*
  1
*
 70
     0
  1
*
  1
*
  0
XRECORD
  5
EF6
102
{ACAD_REACTORS
330
EEB
102
}
330
EEB
100
AcDbXrecord
280
     1
  1
01
  1
0*a*
  1
*
  1
*
 70
     0
  1
*
  1
*
  0
XRECORD
  5
EF7
102
{ACAD_REACTORS
330
EEB
102
}
330
EEB
100
AcDbXrecord
280
     1
  1
01KUTAI
  1
01KUTAI
  1
*
  1
*
 70
     0
  1
*
  1
*
  0
XRECORD
  5
EF8
102
{ACAD_REACTORS
330
EEB
102
}
330
EEB
100
AcDbXrecord
280
     1
  1
01全体計画平面図
  1
00*,02*,0A*
  1
*
  1
*
 70
     0
  1
*
  1
*
  0
XRECORD
  5
EF9
102
{ACAD_REACTORS
330
EEB
102
}
330
EEB
100
AcDbXrecord
280
     1
  1
02現況平面図
  1
00*,01*,0B*
  1
*
  1
*
 70
     0
  1
*
  1
*
  0
XRECORD
  5
EFA
102
{ACAD_REACTORS
330
EEB
102
}
330
EEB
100
AcDbXrecord
280
     1
  1
03撤去平面図
  1
00*,01*,0C*
  1
*
  1
*
 70
     0
  1
*
  1
*
  0
XRECORD
  5
EFB
102
{ACAD_REACTORS
330
EEB
102
}
330
EEB
100
AcDbXrecord
280
     1
  1
04造成平面図
  1
00*,02計*,0D*,03*,01*
  1
*
  1
*
 70
     0
  1
*
  1
*
  0
XRECORD
  5
EFC
102
{ACAD_REACTORS
330
EEB
102
}
330
EEB
100
AcDbXrecord
280
     1
  1
05
  1
*05*
  1
*
  1
*
 70
     0
  1
*
  1
*
  0
XRECORD
  5
EFD
102
{ACAD_REACTORS
330
EEB
102
}
330
EEB
100
AcDbXrecord
280
     1
  1
05施設平面図
  1
00*,02*,0E*,05*
  1
*
  1
*
 70
     0
  1
*
  1
*
  0
XRECORD
  5
EFE
102
{ACAD_REACTORS
330
EEB
102
}
330
EEB
100
AcDbXrecord
280
     1
  1
06
  1
06*
  1
*
  1
*
 70
     0
  1
*
  1
*
  0
XRECORD
  5
EFF
102
{ACAD_REACTORS
330
EEB
102
}
330
EEB
100
AcDbXrecord
280
     1
  1
06siki
  1
06*siki*,sikiti,00waku,*|*
  1
*
  1
*
 70
     0
  1
*
  1
*
  0
XRECORD
  5
F00
102
{ACAD_REACTORS
330
EEB
102
}
330
EEB
100
AcDbXrecord
280
     1
  1
06siki2
  1
06*siki*,sikiti,00waku,*|*
  1
*
  1
*
 70
     0
  1
*
  1
*
  0
XRECORD
  5
F01
102
{ACAD_REACTORS
330
EEB
102
}
330
EEB
100
AcDbXrecord
280
     1
  1
06排水平面図
  1
00*,02*,0F*
  1
*
  1
*
 70
     0
  1
*
  1
*
  0
XRECORD
  5
F02
102
{ACAD_REACTORS
330
EEB
102
}
330
EEB
100
AcDbXrecord
280
     1
  1
07
  1
07*
  1
*
  1
*
 70
     0
  1
*
  1
*
  0
XRECORD
  5
F03
102
{ACAD_REACTORS
330
EEB
102
}
330
EEB
100
AcDbXrecord
280
     1
  1
07給水平面図
  1
00*,02*,0G*
  1
*
  1
*
 70
     0
  1
*
  1
*
  0
XRECORD
  5
F04
102
{ACAD_REACTORS
330
EEB
102
}
330
EEB
100
AcDbXrecord
280
     1
  1
0割付平面図
  1
*わ*
  1
*
  1
*
 70
     0
  1
*
  1
*
  0
XRECORD
  5
F05
102
{ACAD_REACTORS
330
EEB
102
}
330
EEB
100
AcDbXrecord
280
     1
  1
0潅水平面
  1
*三*
  1
*
  1
*
 70
     0
  1
*
  1
*
  0
XRECORD
  5
F06
102
{ACAD_REACTORS
330
EEB
102
}
330
EEB
100
AcDbXrecord
280
     1
  1
0計画平面
  1
*け*
  1
*
  1
*
 70
     0
  1
*
  1
*
  0
XRECORD
  5
F07
102
{ACAD_REACTORS
330
EEB
102
}
330
EEB
100
AcDbXrecord
280
     1
  1
0高木植栽
  1
*こ*
  1
*
  1
*
 70
     0
  1
*
  1
*
  0
XRECORD
  5
F08
102
{ACAD_REACTORS
330
EEB
102
}
330
EEB
100
AcDbXrecord
280
     1
  1
0施設平面
  1
*し*
  1
*
  1
*
 70
     0
  1
*
  1
*
  0
XRECORD
  5
F09
102
{ACAD_REACTORS
330
EEB
102
}
330
EEB
100
AcDbXrecord
280
     1
  1
0床内
  1
FI-*
  1
*
  1
*
 70
     0
  1
*
  1
*
  0
XRECORD
  5
F0A
102
{ACAD_REACTORS
330
EEB
102
}
330
EEB
100
AcDbXrecord
280
     1
  1
0床壁
  1
FW*
  1
*
  1
*
 70
     0
  1
*
  1
*
  0
XRECORD
  5
F0B
102
{ACAD_REACTORS
330
EEB
102
}
330
EEB
100
AcDbXrecord
280
     1
  1
0照明配置図
  1
*め*
  1
*
  1
*
 70
     0
  1
*
  1
*
  0
XRECORD
  5
F0C
102
{ACAD_REACTORS
330
EEB
102
}
330
EEB
100
AcDbXrecord
280
     1
  1
0詳細図
  1
*-d
  1
*
  1
*
 70
     0
  1
*
  1
*
  0
XRECORD
  5
F0D
102
{ACAD_REACTORS
330
EEB
102
}
330
EEB
100
AcDbXrecord
280
     1
  1
0植栽基盤
  1
*ど*
  1
*
  1
*
 70
     0
  1
*
  1
*
  0
XRECORD
  5
F0E
102
{ACAD_REACTORS
330
EEB
102
}
330
EEB
100
AcDbXrecord
280
     1
  1
0全体工区区分図
  1
*ぜ*
  1
*
  1
*
 70
     0
  1
*
  1
*
  0
XRECORD
  5
F0F
102
{ACAD_REACTORS
330
EEB
102
}
330
EEB
100
AcDbXrecord
280
     1
  1
0総合図off
  1
*-s
  1
*
  1
*
 70
     0
  1
*
  1
*
  0
XRECORD
  5
F10
102
{ACAD_REACTORS
330
EEB
102
}
330
EEB
100
AcDbXrecord
280
     1
  1
0総合図枠
  1
*-2
  1
*
  1
*
 70
     0
  1
*
  1
*
  0
XRECORD
  5
F11
102
{ACAD_REACTORS
330
EEB
102
}
330
EEB
100
AcDbXrecord
280
     1
  1
0低木
  1
*て*
  1
*
  1
*
 70
     0
  1
*
  1
*
  0
XRECORD
  5
F12
102
{ACAD_REACTORS
330
EEB
102
}
330
EEB
100
AcDbXrecord
280
     1
  1
0排水平面
  1
*は*
  1
*
  1
*
 70
     0
  1
*
  1
*
  0
XRECORD
  5
F13
102
{ACAD_REACTORS
330
EEB
102
}
330
EEB
100
AcDbXrecord
280
     1
  1
0平詳枠
  1
*-1
  1
*
  1
*
 70
     0
  1
*
  1
*
  0
XRECORD
  5
F14
102
{ACAD_REACTORS
330
EEB
102
}
330
EEB
100
AcDbXrecord
280
     1
  1
0擁壁平面図
  1
*よ*
  1
*
  1
*
 70
     0
  1
*
  1
*
  0
XRECORD
  5
F15
102
{ACAD_REACTORS
330
EEB
102
}
330
EEB
100
AcDbXrecord
280
     1
  1
1
  1
*
  1
*
  1
*
 70
     0
  1
*
  1
*
  0
XRECORD
  5
F16
102
{ACAD_REACTORS
330
EEB
102
}
330
EEB
100
AcDbXrecord
280
     1
  1
10
  1
*
  1
10
  1
*
 70
     0
  1
*
  1
*
  0
XRECORD
  5
F17
102
{ACAD_REACTORS
330
EEB
102
}
330
EEB
100
AcDbXrecord
280
     1
  1
100
  1
50*
  1
*
  1
*
 70
     0
  1
*
  1
*
  0
XRECORD
  5
F18
102
{ACAD_REACTORS
330
EEB
102
}
330
EEB
100
AcDbXrecord
280
     1
  1
10植栽平面図
  1
00*,02*,0I*
  1
*
  1
*
 70
     0
  1
*
  1
*
  0
XRECORD
  5
F19
102
{ACAD_REACTORS
330
EEB
102
}
330
EEB
100
AcDbXrecord
280
     1
  1
11
  1
11*
  1
*
  1
*
 70
     0
  1
*
  1
*
  0
XRECORD
  5
F1A
102
{ACAD_REACTORS
330
EEB
102
}
330
EEB
100
AcDbXrecord
280
     1
  1
1111
  1
*-50
  1
*
  1
*
 70
     0
  1
*
  1
*
  0
XRECORD
  5
F1B
102
{ACAD_REACTORS
330
EEB
102
}
330
EEB
100
AcDbXrecord
280
     1
  1
11寸法図
  1
00*,02*,0K*,03*
  1
*
  1
*
 70
     0
  1
*
  1
*
  0
XRECORD
  5
F1C
102
{ACAD_REACTORS
330
EEB
102
}
330
EEB
100
AcDbXrecord
280
     1
  1
12
  1
*
  1
*12
  1
*
 70
     0
  1
*
  1
*
  0
XRECORD
  5
F1D
102
{ACAD_REACTORS
330
EEB
102
}
330
EEB
100
AcDbXrecord
280
     1
  1
19
  1
*19*
  1
*
  1
*
 70
     0
  1
*
  1
*
  0
XRECORD
  5
F1E
102
{ACAD_REACTORS
330
EEB
102
}
330
EEB
100
AcDbXrecord
280
     1
  1
１Ｆ床伏OFF
  1
-*
  1
*
  1
*
 70
     0
  1
*
  1
*
  0
XRECORD
  5
F1F
102
{ACAD_REACTORS
330
EEB
102
}
330
EEB
100
AcDbXrecord
280
     1
  1
1階
  1
*1階*
  1
*
  1
*
 70
     0
  1
*
  1
*
  0
XRECORD
  5
F20
102
{ACAD_REACTORS
330
EEB
102
}
330
EEB
100
AcDbXrecord
280
     1
  1
1床
  1
F-*
  1
*
  1
*
 70
     0
  1
*
  1
*
  0
XRECORD
  5
F21
102
{ACAD_REACTORS
330
EEB
102
}
330
EEB
100
AcDbXrecord
280
     1
  1
1芯
  1
1*
  1
*
  1
*
 70
     0
  1
*
  1
*
  0
XRECORD
  5
F22
102
{ACAD_REACTORS
330
EEB
102
}
330
EEB
100
AcDbXrecord
280
     1
  1
1芯線
  1
1*
  1
*
  1
*
 70
     0
  1
*
  1
*
  0
XRECORD
  5
F23
102
{ACAD_REACTORS
330
EEB
102
}
330
EEB
100
AcDbXrecord
280
     1
  1
20
  1
*20
  1
*
  1
*
 70
     0
  1
*
  1
*
  0
XRECORD
  5
F24
102
{ACAD_REACTORS
330
EEB
102
}
330
EEB
100
AcDbXrecord
280
     1
  1
21
  1
*
  1
21
  1
*
 70
     0
  1
*
  1
*
  0
XRECORD
  5
F25
102
{ACAD_REACTORS
330
EEB
102
}
330
EEB
100
AcDbXrecord
280
     1
  1
250
  1
*250*
  1
*
  1
*
 70
     0
  1
*
  1
*
  0
XRECORD
  5
F26
102
{ACAD_REACTORS
330
EEB
102
}
330
EEB
100
AcDbXrecord
280
     1
  1
2fmiage
  1
*
  1
*
  1
*
 70
     1
  1
*
  1
*
  0
XRECORD
  5
F27
102
{ACAD_REACTORS
330
EEB
102
}
330
EEB
100
AcDbXrecord
280
     1
  1
2躯体
  1
2*
  1
*
  1
*
 70
     0
  1
*
  1
*
  0
XRECORD
  5
F28
102
{ACAD_REACTORS
330
EEB
102
}
330
EEB
100
AcDbXrecord
280
     1
  1
2断面
  1
2*
  1
*
  1
*
 70
     0
  1
*
  1
*
  0
XRECORD
  5
F29
102
{ACAD_REACTORS
330
EEB
102
}
330
EEB
100
AcDbXrecord
280
     1
  1
2壁
  1
W-*
  1
*
  1
*
 70
     0
  1
*
  1
*
  0
XRECORD
  5
F2A
102
{ACAD_REACTORS
330
EEB
102
}
330
EEB
100
AcDbXrecord
280
     1
  1
300
  1
*300*
  1
*
  1
*
 70
     0
  1
*
  1
*
  0
XRECORD
  5
F2B
102
{ACAD_REACTORS
330
EEB
102
}
330
EEB
100
AcDbXrecord
280
     1
  1
32
  1
*
  1
32
  1
*
 70
     0
  1
*
  1
*
  0
XRECORD
  5
F2C
102
{ACAD_REACTORS
330
EEB
102
}
330
EEB
100
AcDbXrecord
280
     1
  1
333
  1
*
  1
*
  1
*
 70
    12
  1
*
  1
*
  0
XRECORD
  5
F2D
102
{ACAD_REACTORS
330
EEB
102
}
330
EEB
100
AcDbXrecord
280
     1
  1
37
  1
*37
  1
*
  1
*
 70
     0
  1
*
  1
*
  0
XRECORD
  5
F2E
102
{ACAD_REACTORS
330
EEB
102
}
330
EEB
100
AcDbXrecord
280
     1
  1
3D
  1
3D*
  1
*
  1
*
 70
     0
  1
*
  1
*
  0
XRECORD
  5
F2F
102
{ACAD_REACTORS
330
EEB
102
}
330
EEB
100
AcDbXrecord
280
     1
  1
3開口
  1
3*
  1
*
  1
*
 70
     0
  1
*
  1
*
  0
XRECORD
  5
F30
102
{ACAD_REACTORS
330
EEB
102
}
330
EEB
100
AcDbXrecord
280
     1
  1
3見掛り
  1
3*
  1
*
  1
*
 70
     0
  1
*
  1
*
  0
XRECORD
  5
F31
102
{ACAD_REACTORS
330
EEB
102
}
330
EEB
100
AcDbXrecord
280
     1
  1
3天井内
  1
CI-*
  1
*
  1
*
 70
     0
  1
*
  1
*
  0
XRECORD
  5
F32
102
{ACAD_REACTORS
330
EEB
102
}
330
EEB
100
AcDbXrecord
280
     1
  1
41
  1
41
  1
*
  1
*
 70
     1
  1
*
  1
*
  0
XRECORD
  5
F33
102
{ACAD_REACTORS
330
EEB
102
}
330
EEB
100
AcDbXrecord
280
     1
  1
4仕上げ
  1
4*
  1
*
  1
*
 70
     0
  1
*
  1
*
  0
XRECORD
  5
F34
102
{ACAD_REACTORS
330
EEB
102
}
330
EEB
100
AcDbXrecord
280
     1
  1
4天井
  1
C-*
  1
*
  1
*
 70
     0
  1
*
  1
*
  0
XRECORD
  5
F35
102
{ACAD_REACTORS
330
EEB
102
}
330
EEB
100
AcDbXrecord
280
     1
  1
5
  1
*5
  1
*
  1
*
 70
     1
  1
*
  1
*
  0
XRECORD
  5
F36
102
{ACAD_REACTORS
330
EEB
102
}
330
EEB
100
AcDbXrecord
280
     1
  1
50
  1
*-50
  1
*
  1
*
 70
     0
  1
*
  1
*
  0
XRECORD
  5
F37
102
{ACAD_REACTORS
330
EEB
102
}
330
EEB
100
AcDbXrecord
280
     1
  1
50off
  1
50*
  1
*
  1
*
 70
     0
  1
*
  1
*
  0
XRECORD
  5
F38
102
{ACAD_REACTORS
330
EEB
102
}
330
EEB
100
AcDbXrecord
280
     1
  1
51-52
  1
5*
  1
*
  1
*
 70
     0
  1
*
  1
*
  0
XRECORD
  5
F39
102
{ACAD_REACTORS
330
EEB
102
}
330
EEB
100
AcDbXrecord
280
     1
  1
555
  1
*
  1
*
  1
*
 70
     1
  1
*
  1
*
  0
XRECORD
  5
F3A
102
{ACAD_REACTORS
330
EEB
102
}
330
EEB
100
AcDbXrecord
280
     1
  1
5寸法
  1
5*
  1
*
  1
*
 70
     0
  1
*
  1
*
  0
XRECORD
  5
F3B
102
{ACAD_REACTORS
330
EEB
102
}
330
EEB
100
AcDbXrecord
280
     1
  1
5文字
  1
*TXT*
  1
*
  1
*
 70
     0
  1
*
  1
*
  0
XRECORD
  5
F3C
102
{ACAD_REACTORS
330
EEB
102
}
330
EEB
100
AcDbXrecord
280
     1
  1
6
  1
*
  1
6
  1
*
 70
     0
  1
*
  1
*
  0
XRECORD
  5
F3D
102
{ACAD_REACTORS
330
EEB
102
}
330
EEB
100
AcDbXrecord
280
     1
  1
66-躯体図
  1
0,Defpoints,HOJO,雲マーク,000*,010*,020*,1*,400*,470*,520*,570*,08*
  1
*
  1
*
 70
     0
  1
*
  1
*
  0
XRECORD
  5
F3E
102
{ACAD_REACTORS
330
EEB
102
}
330
EEB
100
AcDbXrecord
280
     1
  1
66躯体図
  1
0,Defpoints,HOJO,雲マーク,000*,010*,020*,1*,400*,470*,520*,570*,08*,6*
  1
*
  1
*
 70
     0
  1
*
  1
*
  0
XRECORD
  5
F3F
102
{ACAD_REACTORS
330
EEB
102
}
330
EEB
100
AcDbXrecord
280
     1
  1
6記号
  1
6*
  1
*
  1
*
 70
     0
  1
*
  1
*
  0
XRECORD
  5
F40
102
{ACAD_REACTORS
330
EEB
102
}
330
EEB
100
AcDbXrecord
280
     1
  1
6文字
  1
6*
  1
*
  1
*
 70
     0
  1
*
  1
*
  0
XRECORD
  5
F41
102
{ACAD_REACTORS
330
EEB
102
}
330
EEB
100
AcDbXrecord
280
     1
  1
6保留
  1
*_a
  1
*
  1
*
 70
     0
  1
*
  1
*
  0
XRECORD
  5
F42
102
{ACAD_REACTORS
330
EEB
102
}
330
EEB
100
AcDbXrecord
280
     1
  1
767
  1
*
  1
*
  1
*
 70
     0
  1
*
  1
*
  0
XRECORD
  5
F43
102
{ACAD_REACTORS
330
EEB
102
}
330
EEB
100
AcDbXrecord
280
     1
  1
767SE13-0...$
  1
*
  1
*
  1
*
 70
     0
  1
*
  1
*
  0
XRECORD
  5
F44
102
{ACAD_REACTORS
330
EEB
102
}
330
EEB
100
AcDbXrecord
280
     1
  1
767SE13-07-99$0$
  1
*
  1
*
  1
*
 70
     0
  1
*
  1
*
  0
XRECORD
  5
F45
102
{ACAD_REACTORS
330
EEB
102
}
330
EEB
100
AcDbXrecord
280
     1
  1
7記号
  1
7*
  1
*
  1
*
 70
     0
  1
*
  1
*
  0
XRECORD
  5
F46
102
{ACAD_REACTORS
330
EEB
102
}
330
EEB
100
AcDbXrecord
280
     1
  1
8
  1
*
  1
8
  1
*
 70
    12
  1
*
  1
*
  0
XRECORD
  5
F47
102
{ACAD_REACTORS
330
EEB
102
}
330
EEB
100
AcDbXrecord
280
     1
  1
8寸法
  1
8*
  1
*
  1
*
 70
     0
  1
*
  1
*
  0
XRECORD
  5
F48
102
{ACAD_REACTORS
330
EEB
102
}
330
EEB
100
AcDbXrecord
280
     1
  1
8設備
  1
8*
  1
*
  1
*
 70
     0
  1
*
  1
*
  0
XRECORD
  5
F49
102
{ACAD_REACTORS
330
EEB
102
}
330
EEB
100
AcDbXrecord
280
     1
  1
9文字
  1
9*
  1
*
  1
*
 70
     0
  1
*
  1
*
  0
XRECORD
  5
F4A
102
{ACAD_REACTORS
330
EEB
102
}
330
EEB
100
AcDbXrecord
280
     1
  1
9目地
  1
9*
  1
*
  1
*
 70
     0
  1
*
  1
*
  0
XRECORD
  5
F4B
102
{ACAD_REACTORS
330
EEB
102
}
330
EEB
100
AcDbXrecord
280
     1
  1
A
  1
A*
  1
*
  1
*
 70
     0
  1
*
  1
*
  0
XRECORD
  5
F4C
102
{ACAD_REACTORS
330
EEB
102
}
330
EEB
100
AcDbXrecord
280
     1
  1
A-
  1
A-*
  1
*
  1
*
 70
     0
  1
*
  1
*
  0
XRECORD
  5
F4D
102
{ACAD_REACTORS
330
EEB
102
}
330
EEB
100
AcDbXrecord
280
     1
  1
A(枠･表)を表示
  1
A*
  1
*
  1
*
 70
     0
  1
*
  1
*
  0
XRECORD
  5
F4E
102
{ACAD_REACTORS
330
EEB
102
}
330
EEB
100
AcDbXrecord
280
     1
  1
A01
  1
*A01*
  1
*
  1
*
 70
     0
  1
*
  1
*
  0
XRECORD
  5
F4F
102
{ACAD_REACTORS
330
EEB
102
}
330
EEB
100
AcDbXrecord
280
     1
  1
A1.DEMO-KEY NOTE
  1
*-D-*
  1
*
  1
*
 70
     0
  1
*
  1
*
  0
XRECORD
  5
F50
102
{ACAD_REACTORS
330
EEB
102
}
330
EEB
100
AcDbXrecord
280
     1
  1
A2. CONS-KEY NOTE
  1
*-C-*
  1
*
  1
*
 70
     0
  1
*
  1
*
  0
XRECORD
  5
F51
102
{ACAD_REACTORS
330
EEB
102
}
330
EEB
100
AcDbXrecord
280
     1
  1
A21
  1
*A21*
  1
*
  1
*
 70
     0
  1
*
  1
*
  0
XRECORD
  5
F52
102
{ACAD_REACTORS
330
EEB
102
}
330
EEB
100
AcDbXrecord
280
     1
  1
A3
  1
*A3
  1
*
  1
*
 70
     0
  1
*
  1
*
  0
XRECORD
  5
F53
102
{ACAD_REACTORS
330
EEB
102
}
330
EEB
100
AcDbXrecord
280
     1
  1
A3. RCP-LAYER
  1
*R-SCH*
  1
*
  1
*
 70
     0
  1
*
  1
*
  0
XRECORD
  5
F54
102
{ACAD_REACTORS
330
EEB
102
}
330
EEB
100
AcDbXrecord
280
     1
  1
A3D. RCP_DEMO-KEY NOTE
  1
*-RD-*
  1
*
  1
*
 70
     0
  1
*
  1
*
  0
XRECORD
  5
F55
102
{ACAD_REACTORS
330
EEB
102
}
330
EEB
100
AcDbXrecord
280
     1
  1
A4. P&T- KEY NOTE
  1
*T-SCH*
  1
*
  1
*
 70
     0
  1
*
  1
*
  0
XRECORD
  5
F56
102
{ACAD_REACTORS
330
EEB
102
}
330
EEB
100
AcDbXrecord
280
     1
  1
A4D. EL_DEMO-KEY NOTE
  1
*-ED-*
  1
*
  1
*
 70
     0
  1
*
  1
*
  0
XRECORD
  5
F57
102
{ACAD_REACTORS
330
EEB
102
}
330
EEB
100
AcDbXrecord
280
     1
  1
A5. FINISH-KEY NOTE
  1
*-N-*
  1
*
  1
*
 70
     0
  1
*
  1
*
  0
XRECORD
  5
F58
102
{ACAD_REACTORS
330
EEB
102
}
330
EEB
100
AcDbXrecord
280
     1
  1
A6. FURN-KEY NOTE
  1
*-F-*
  1
*
  1
*
 70
     0
  1
*
  1
*
  0
XRECORD
  5
F59
102
{ACAD_REACTORS
330
EEB
102
}
330
EEB
100
AcDbXrecord
280
     1
  1
aa
  1
*aa*
  1
*
  1
*
 70
     0
  1
*
  1
*
  0
XRECORD
  5
F5A
102
{ACAD_REACTORS
330
EEB
102
}
330
EEB
100
AcDbXrecord
280
     1
  1
aaa
  1
*
  1
*
  1
*
 70
     0
  1
*
  1
*
  0
XRECORD
  5
F5B
102
{ACAD_REACTORS
330
EEB
102
}
330
EEB
100
AcDbXrecord
280
     1
  1
AB棟
  1
ＡＢ棟*
  1
*
  1
*
 70
     0
  1
*
  1
*
  0
XRECORD
  5
F5C
102
{ACAD_REACTORS
330
EEB
102
}
330
EEB
100
AcDbXrecord
280
     1
  1
ＡＢ棟
  1
ＡＢ棟*
  1
*
  1
*
 70
     0
  1
*
  1
*
  0
XRECORD
  5
F5D
102
{ACAD_REACTORS
330
EEB
102
}
330
EEB
100
AcDbXrecord
280
     1
  1
ACTIVE
  1
C.*
  1
*
  1
*
 70
     0
  1
*
  1
*
  0
XRECORD
  5
F5E
102
{ACAD_REACTORS
330
EEB
102
}
330
EEB
100
AcDbXrecord
280
     1
  1
ACTIVE2
  1
B-*
  1
*
  1
*
 70
     0
  1
*
  1
*
  0
XRECORD
  5
F5F
102
{ACAD_REACTORS
330
EEB
102
}
330
EEB
100
AcDbXrecord
280
     1
  1
ALC
  1
*ALC
  1
*
  1
*
 70
     0
  1
*
  1
*
  0
XRECORD
  5
F60
102
{ACAD_REACTORS
330
EEB
102
}
330
EEB
100
AcDbXrecord
280
     1
  1
ALL
  1
*
  1
*
  1
*
 70
     3
  1
*
  1
*
  0
XRECORD
  5
F61
102
{ACAD_REACTORS
330
EEB
102
}
330
EEB
100
AcDbXrecord
280
     1
  1
all選択
  1
*
  1
*
  1
*
 70
     0
  1
*
  1
*
  0
XRECORD
  5
F62
102
{ACAD_REACTORS
330
EEB
102
}
330
EEB
100
AcDbXrecord
280
     1
  1
AMENAGEMENT
  1
*
  1
*
  1
*
 70
    13
  1
*
  1
*
  0
XRECORD
  5
F63
102
{ACAD_REACTORS
330
EEB
102
}
330
EEB
100
AcDbXrecord
280
     1
  1
AQ
  1
AQ*
  1
*
  1
*
 70
     0
  1
*
  1
*
  0
XRECORD
  5
F64
102
{ACAD_REACTORS
330
EEB
102
}
330
EEB
100
AcDbXrecord
280
     1
  1
ARBOL
  1
*ARBOL*
  1
*
  1
*
 70
     0
  1
*
  1
*
  0
XRECORD
  5
F65
102
{ACAD_REACTORS
330
EEB
102
}
330
EEB
100
AcDbXrecord
280
     1
  1
AREA
  1
*AREA*
  1
*
  1
*
 70
     0
  1
*
  1
*
  0
XRECORD
  5
F66
102
{ACAD_REACTORS
330
EEB
102
}
330
EEB
100
AcDbXrecord
280
     1
  1
AREA-SG
  1
*6AREA-SG
  1
6
  1
*
 70
     0
  1
*
  1
*
  0
XRECORD
  5
F67
102
{ACAD_REACTORS
330
EEB
102
}
330
EEB
100
AcDbXrecord
280
     1
  1
AS1
  1
*AS1
  1
*
  1
*
 70
     0
  1
*
  1
*
  0
XRECORD
  5
F68
102
{ACAD_REACTORS
330
EEB
102
}
330
EEB
100
AcDbXrecord
280
     1
  1
aハッチング
  1
a*
  1
*
  1
*
 70
     0
  1
*
  1
*
  0
XRECORD
  5
F69
102
{ACAD_REACTORS
330
EEB
102
}
330
EEB
100
AcDbXrecord
280
     1
  1
A空調
  1
*
  1
*
  1
*
 70
     0
  1
*
  1
KUCYOU
  0
XRECORD
  5
F6A
102
{ACAD_REACTORS
330
EEB
102
}
330
EEB
100
AcDbXrecord
280
     1
  1
B
  1
B*
  1
*
  1
*
 70
     0
  1
*
  1
*
  0
XRECORD
  5
F6B
102
{ACAD_REACTORS
330
EEB
102
}
330
EEB
100
AcDbXrecord
280
     1
  1
B(基準)を表示
  1
B*
  1
*
  1
*
 70
     0
  1
*
  1
*
  0
XRECORD
  5
F6C
102
{ACAD_REACTORS
330
EEB
102
}
330
EEB
100
AcDbXrecord
280
     1
  1
B2
  1
B2*
  1
*
  1
*
 70
     1
  1
*
  1
*
  0
XRECORD
  5
F6D
102
{ACAD_REACTORS
330
EEB
102
}
330
EEB
100
AcDbXrecord
280
     1
  1
B3
  1
B3*
  1
*
  1
*
 70
     0
  1
*
  1
*
  0
XRECORD
  5
F6E
102
{ACAD_REACTORS
330
EEB
102
}
330
EEB
100
AcDbXrecord
280
     1
  1
BAL
  1
*BAL
  1
*
  1
*
 70
     0
  1
*
  1
*
  0
XRECORD
  5
F6F
102
{ACAD_REACTORS
330
EEB
102
}
330
EEB
100
AcDbXrecord
280
     1
  1
baru
  1
*51A
  1
*
  1
*
 70
     0
  1
*
  1
*
  0
XRECORD
  5
F70
102
{ACAD_REACTORS
330
EEB
102
}
330
EEB
100
AcDbXrecord
280
     1
  1
baru2
  1
*AS1A
  1
*
  1
*
 70
     0
  1
*
  1
*
  0
XRECORD
  5
F71
102
{ACAD_REACTORS
330
EEB
102
}
330
EEB
100
AcDbXrecord
280
     1
  1
BASE
  1
*I4BASE
  1
*
  1
*
 70
     0
  1
*
  1
*
  0
XRECORD
  5
F72
102
{ACAD_REACTORS
330
EEB
102
}
330
EEB
100
AcDbXrecord
280
     1
  1
bb
  1
rogarpissu,block
  1
*
  1
*
 70
     0
  1
*
  1
*
  0
XRECORD
  5
F73
102
{ACAD_REACTORS
330
EEB
102
}
330
EEB
100
AcDbXrecord
280
     1
  1
bbbb
  1
prova
  1
*
  1
*
 70
    55
  1
*
  1
*
  0
XRECORD
  5
F74
102
{ACAD_REACTORS
330
EEB
102
}
330
EEB
100
AcDbXrecord
280
     1
  1
beam
  1
*beam*
  1
*
  1
*
 70
     0
  1
*
  1
*
  0
XRECORD
  5
F75
102
{ACAD_REACTORS
330
EEB
102
}
330
EEB
100
AcDbXrecord
280
     1
  1
blocchi
  1
mqa*
  1
*
  1
*
 70
     0
  1
*
  1
*
  0
XRECORD
  5
F76
102
{ACAD_REACTORS
330
EEB
102
}
330
EEB
100
AcDbXrecord
280
     1
  1
blue
  1
*
  1
blue
  1
*
 70
     0
  1
*
  1
*
  0
XRECORD
  5
F77
102
{ACAD_REACTORS
330
EEB
102
}
330
EEB
100
AcDbXrecord
280
     1
  1
BSM
  1
*BSM*
  1
*
  1
*
 70
     0
  1
*
  1
*
  0
XRECORD
  5
F78
102
{ACAD_REACTORS
330
EEB
102
}
330
EEB
100
AcDbXrecord
280
     1
  1
b階段
  1
b*
  1
*
  1
*
 70
     0
  1
*
  1
*
  0
XRECORD
  5
F79
102
{ACAD_REACTORS
330
EEB
102
}
330
EEB
100
AcDbXrecord
280
     1
  1
B電気
  1
*
  1
*
  1
*
 70
     0
  1
*
  1
DENKI
  0
XRECORD
  5
F7A
102
{ACAD_REACTORS
330
EEB
102
}
330
EEB
100
AcDbXrecord
280
     1
  1
c
  1
c*
  1
*
  1
*
 70
    61
  1
*
  1
*
  0
XRECORD
  5
F7B
102
{ACAD_REACTORS
330
EEB
102
}
330
EEB
100
AcDbXrecord
280
     1
  1
c-block
  1
c-*
  1
*
  1
*
 70
     0
  1
*
  1
*
  0
XRECORD
  5
F7C
102
{ACAD_REACTORS
330
EEB
102
}
330
EEB
100
AcDbXrecord
280
     1
  1
c-block-2
  1
c-*
  1
*
  1
*
 70
  1024
  1
*
  1
*
  0
XRECORD
  5
F7D
102
{ACAD_REACTORS
330
EEB
102
}
330
EEB
100
AcDbXrecord
280
     1
  1
C(寸･文･記)を表示
  1
C*
  1
*
  1
*
 70
     0
  1
*
  1
*
  0
XRECORD
  5
F7E
102
{ACAD_REACTORS
330
EEB
102
}
330
EEB
100
AcDbXrecord
280
     1
  1
cajetin
  1
caj*
  1
*
  1
*
 70
     0
  1
*
  1
*
  0
XRECORD
  5
F7F
102
{ACAD_REACTORS
330
EEB
102
}
330
EEB
100
AcDbXrecord
280
     1
  1
cc
  1
*
  1
*
  1
*
 70
     0
  1
*
  1
*
  0
XRECORD
  5
F80
102
{ACAD_REACTORS
330
EEB
102
}
330
EEB
100
AcDbXrecord
280
     1
  1
CD06
  1
CD06*
  1
*
  1
*
 70
     0
  1
*
  1
*
  0
XRECORD
  5
F81
102
{ACAD_REACTORS
330
EEB
102
}
330
EEB
100
AcDbXrecord
280
     1
  1
ＣＤ棟
  1
T15-*
  1
*
  1
*
 70
     0
  1
*
  1
*
  0
XRECORD
  5
F82
102
{ACAD_REACTORS
330
EEB
102
}
330
EEB
100
AcDbXrecord
280
     1
  1
ceiling
  1
*ceiling*
  1
*
  1
*
 70
     0
  1
*
  1
*
  0
XRECORD
  5
F83
102
{ACAD_REACTORS
330
EEB
102
}
330
EEB
100
AcDbXrecord
280
     1
  1
CEILINGS XREF
  1
*CE-SUSPENDED-CEILINGS
  1
*
  1
*
 70
     0
  1
*
  1
*
  0
XRECORD
  5
F84
102
{ACAD_REACTORS
330
EEB
102
}
330
EEB
100
AcDbXrecord
280
     1
  1
CEL
  1
*
  1
*
  1
*
 70
     0
  1
*
  1
*
  0
XRECORD
  5
F85
102
{ACAD_REACTORS
330
EEB
102
}
330
EEB
100
AcDbXrecord
280
     1
  1
che
  1
che*
  1
*
  1
*
 70
     0
  1
*
  1
*
  0
XRECORD
  5
F86
102
{ACAD_REACTORS
330
EEB
102
}
330
EEB
100
AcDbXrecord
280
     1
  1
chika
  1
2躯体構造体点線
  1
211
  1
*
 70
     0
  1
*
  1
*
  0
XRECORD
  5
F87
102
{ACAD_REACTORS
330
EEB
102
}
330
EEB
100
AcDbXrecord
280
     1
  1
CLG
  1
*CLG*
  1
*
  1
*
 70
     0
  1
*
  1
*
  0
XRECORD
  5
F88
102
{ACAD_REACTORS
330
EEB
102
}
330
EEB
100
AcDbXrecord
280
     1
  1
COL
  1
*COL*
  1
*
  1
*
 70
     0
  1
*
  1
*
  0
XRECORD
  5
F89
102
{ACAD_REACTORS
330
EEB
102
}
330
EEB
100
AcDbXrecord
280
     1
  1
cold beam
  1
*cold*
  1
*
  1
*
 70
     0
  1
*
  1
*
  0
XRECORD
  5
F8A
102
{ACAD_REACTORS
330
EEB
102
}
330
EEB
100
AcDbXrecord
280
     1
  1
colu
  1
*colu*
  1
*
  1
*
 70
     0
  1
*
  1
*
  0
XRECORD
  5
F8B
102
{ACAD_REACTORS
330
EEB
102
}
330
EEB
100
AcDbXrecord
280
     1
  1
com
  1
com*
  1
*
  1
*
 70
     0
  1
*
  1
*
  0
XRECORD
  5
F8C
102
{ACAD_REACTORS
330
EEB
102
}
330
EEB
100
AcDbXrecord
280
     1
  1
con
  1
c-*
  1
*
  1
*
 70
     0
  1
*
  1
*
  0
XRECORD
  5
F8D
102
{ACAD_REACTORS
330
EEB
102
}
330
EEB
100
AcDbXrecord
280
     1
  1
CRG
  1
tca-6f|*CRG*
  1
*
  1
*
 70
     0
  1
*
  1
*
  0
XRECORD
  5
F8E
102
{ACAD_REACTORS
330
EEB
102
}
330
EEB
100
AcDbXrecord
280
     1
  1
cyan
  1
*
  1
cyan
  1
*
 70
     0
  1
*
  1
*
  0
XRECORD
  5
F8F
102
{ACAD_REACTORS
330
EEB
102
}
330
EEB
100
AcDbXrecord
280
     1
  1
C衛生
  1
*
  1
*
  1
*
 70
     0
  1
*
  1
EISEI
  0
XRECORD
  5
F90
102
{ACAD_REACTORS
330
EEB
102
}
330
EEB
100
AcDbXrecord
280
     1
  1
C街区関連
  1
*
  1
*
  1
*
 70
  1024
  1
*
  1
*
  0
XRECORD
  5
F91
102
{ACAD_REACTORS
330
EEB
102
}
330
EEB
100
AcDbXrecord
280
     1
  1
c雑金物
  1
c*
  1
*
  1
*
 70
     0
  1
*
  1
*
  0
XRECORD
  5
F92
102
{ACAD_REACTORS
330
EEB
102
}
330
EEB
100
AcDbXrecord
280
     1
  1
C打計画図
  1
001*,002*,003*,004*,005*,007*,012*,015*,016*,017*,018*,019*,020*,021*,049*,050*,051*,052*,053*,054*,055*,056*,057*,058*,059*,060*,061*,062*,063*,064*,065*,066*,067*,068*,069*,070*,071*,072*,073*,074*,075*
  1
*
  1
*
 70
     0
  1
*
  1
*
  0
XRECORD
  5
F93
102
{ACAD_REACTORS
330
EEB
102
}
330
EEB
100
AcDbXrecord
280
     1
  1
D
  1
D*
  1
*
  1
*
 70
     0
  1
*
  1
*
  0
XRECORD
  5
F94
102
{ACAD_REACTORS
330
EEB
102
}
330
EEB
100
AcDbXrecord
280
     1
  1
D(表現補助)を表示
  1
D*
  1
*
  1
*
 70
     0
  1
*
  1
*
  0
XRECORD
  5
F95
102
{ACAD_REACTORS
330
EEB
102
}
330
EEB
100
AcDbXrecord
280
     1
  1
Ｄ・墓地　施設平面
  1
*も*
  1
*
  1
*
 70
     0
  1
*
  1
*
  0
XRECORD
  5
F96
102
{ACAD_REACTORS
330
EEB
102
}
330
EEB
100
AcDbXrecord
280
     1
  1
D16
  1
D16*
  1
*
  1
*
 70
     0
  1
*
  1
*
  0
XRECORD
  5
F97
102
{ACAD_REACTORS
330
EEB
102
}
330
EEB
100
AcDbXrecord
280
     1
  1
DASHED
  1
*
  1
*
  1
DASHED
 70
     0
  1
*
  1
*
  0
XRECORD
  5
F98
102
{ACAD_REACTORS
330
EEB
102
}
330
EEB
100
AcDbXrecord
280
     1
  1
DASHED2
  1
*
  1
*
  1
DASHED
 70
     0
  1
*
  1
*
  0
XRECORD
  5
F99
102
{ACAD_REACTORS
330
EEB
102
}
330
EEB
100
AcDbXrecord
280
     1
  1
DEMO
  1
*DEMO*
  1
*
  1
*
 70
     0
  1
*
  1
*
  0
XRECORD
  5
F9A
102
{ACAD_REACTORS
330
EEB
102
}
330
EEB
100
AcDbXrecord
280
     1
  1
DEMOLITION
  1
*DEMO*
  1
*
  1
*
 70
     0
  1
*
  1
*
  0
XRECORD
  5
F9B
102
{ACAD_REACTORS
330
EEB
102
}
330
EEB
100
AcDbXrecord
280
     1
  1
detail
  1
d*
  1
*
  1
*
 70
     0
  1
*
  1
*
  0
XRECORD
  5
F9C
102
{ACAD_REACTORS
330
EEB
102
}
330
EEB
100
AcDbXrecord
280
     1
  1
details
  1
det-*
  1
*
  1
*
 70
     0
  1
*
  1
*
  0
XRECORD
  5
F9D
102
{ACAD_REACTORS
330
EEB
102
}
330
EEB
100
AcDbXrecord
280
     1
  1
DHED
  1
*DHED*
  1
*
  1
*
 70
     0
  1
*
  1
*
  0
XRECORD
  5
F9E
102
{ACAD_REACTORS
330
EEB
102
}
330
EEB
100
AcDbXrecord
280
     1
  1
Dim
  1
*-Dim*
  1
*
  1
*
 70
     0
  1
*
  1
*
  0
XRECORD
  5
F9F
102
{ACAD_REACTORS
330
EEB
102
}
330
EEB
100
AcDbXrecord
280
     1
  1
disegno
  1
ben*
  1
*
  1
*
 70
     0
  1
*
  1
*
  0
XRECORD
  5
FA0
102
{ACAD_REACTORS
330
EEB
102
}
330
EEB
100
AcDbXrecord
280
     1
  1
DOORS
  1
*
  1
*
  1
*
 70
     0
  1
*
  1
*
  0
XRECORD
  5
FA1
102
{ACAD_REACTORS
330
EEB
102
}
330
EEB
100
AcDbXrecord
280
     1
  1
DR
  1
DR*
  1
*
  1
*
 70
     0
  1
*
  1
*
  0
XRECORD
  5
FA2
102
{ACAD_REACTORS
330
EEB
102
}
330
EEB
100
AcDbXrecord
280
     1
  1
DT
  1
DT*
  1
*
  1
*
 70
     0
  1
*
  1
*
  0
XRECORD
  5
FA3
102
{ACAD_REACTORS
330
EEB
102
}
330
EEB
100
AcDbXrecord
280
     1
  1
d外構
  1
d*
  1
*
  1
*
 70
     0
  1
*
  1
*
  0
XRECORD
  5
FA4
102
{ACAD_REACTORS
330
EEB
102
}
330
EEB
100
AcDbXrecord
280
     1
  1
Ｄ街区低木
  1
*て*
  1
*
  1
*
 70
     0
  1
*
  1
*
  0
XRECORD
  5
FA5
102
{ACAD_REACTORS
330
EEB
102
}
330
EEB
100
AcDbXrecord
280
     1
  1
D割付平面
  1
*わ*
  1
*
  1
*
 70
     0
  1
*
  1
*
  0
XRECORD
  5
FA6
102
{ACAD_REACTORS
330
EEB
102
}
330
EEB
100
AcDbXrecord
280
     1
  1
Ｄ給水設備
  1
*ゆ*
  1
*
  1
*
 70
     0
  1
*
  1
*
  0
XRECORD
  5
FA7
102
{ACAD_REACTORS
330
EEB
102
}
330
EEB
100
AcDbXrecord
280
     1
  1
Ｄ計画高平面
  1
*さ*
  1
*
  1
*
 70
     0
  1
*
  1
*
  0
XRECORD
  5
FA8
102
{ACAD_REACTORS
330
EEB
102
}
330
EEB
100
AcDbXrecord
280
     1
  1
Ｄ計画平面
  1
*け*
  1
*
  1
*
 70
     0
  1
*
  1
*
  0
XRECORD
  5
FA9
102
{ACAD_REACTORS
330
EEB
102
}
330
EEB
100
AcDbXrecord
280
     1
  1
Ｄ工事区分
  1
*ぶ*
  1
*
  1
*
 70
     0
  1
*
  1
*
  0
XRECORD
  5
FAA
102
{ACAD_REACTORS
330
EEB
102
}
330
EEB
100
AcDbXrecord
280
     1
  1
Ｄ高木植栽
  1
*こ*
  1
*
  1
*
 70
     0
  1
*
  1
*
  0
XRECORD
  5
FAB
102
{ACAD_REACTORS
330
EEB
102
}
330
EEB
100
AcDbXrecord
280
     1
  1
Ｄ施設平面
  1
*し*
  1
*
  1
*
 70
     0
  1
*
  1
*
  0
XRECORD
  5
FAC
102
{ACAD_REACTORS
330
EEB
102
}
330
EEB
100
AcDbXrecord
280
     1
  1
Ｄ照明設備
  1
*め*
  1
*
  1
*
 70
     0
  1
*
  1
*
  0
XRECORD
  5
FAD
102
{ACAD_REACTORS
330
EEB
102
}
330
EEB
100
AcDbXrecord
280
     1
  1
Ｄ低木
  1
*て*
  1
*
  1
*
 70
     0
  1
*
  1
*
  0
XRECORD
  5
FAE
102
{ACAD_REACTORS
330
EEB
102
}
330
EEB
100
AcDbXrecord
280
     1
  1
Ｄ電気設備
  1
*で*
  1
*
  1
*
 70
     0
  1
*
  1
*
  0
XRECORD
  5
FAF
102
{ACAD_REACTORS
330
EEB
102
}
330
EEB
100
AcDbXrecord
280
     1
  1
Ｄ土壌改良
  1
*ど*
  1
*
  1
*
 70
     0
  1
*
  1
*
  0
XRECORD
  5
FB0
102
{ACAD_REACTORS
330
EEB
102
}
330
EEB
100
AcDbXrecord
280
     1
  1
Ｄ排水平面
  1
*は*
  1
*
  1
*
 70
     0
  1
*
  1
*
  0
XRECORD
  5
FB1
102
{ACAD_REACTORS
330
EEB
102
}
330
EEB
100
AcDbXrecord
280
     1
  1
D舗装平面
  1
*ほ*
  1
*
  1
*
 70
     0
  1
*
  1
*
  0
XRECORD
  5
FB2
102
{ACAD_REACTORS
330
EEB
102
}
330
EEB
100
AcDbXrecord
280
     1
  1
Ｄ墓地施設平面
  1
*も*
  1
*
  1
*
 70
     0
  1
*
  1
*
  0
XRECORD
  5
FB3
102
{ACAD_REACTORS
330
EEB
102
}
330
EEB
100
AcDbXrecord
280
     1
  1
D墓地排水
  1
*は*
  1
*
  1
*
 70
     0
  1
*
  1
*
  0
XRECORD
  5
FB4
102
{ACAD_REACTORS
330
EEB
102
}
330
EEB
100
AcDbXrecord
280
     1
  1
E
  1
*E-*
  1
*
  1
*
 70
     0
  1
*
  1
*
  0
XRECORD
  5
FB5
102
{ACAD_REACTORS
330
EEB
102
}
330
EEB
100
AcDbXrecord
280
     1
  1
E(点線系)を表示
  1
E*
  1
*
  1
*
 70
     0
  1
*
  1
*
  0
XRECORD
  5
FB6
102
{ACAD_REACTORS
330
EEB
102
}
330
EEB
100
AcDbXrecord
280
     1
  1
EEEE
  1
*
  1
*
  1
*
 70
  1804
  1
*
  1
*
  0
XRECORD
  5
FB7
102
{ACAD_REACTORS
330
EEB
102
}
330
EEB
100
AcDbXrecord
280
     1
  1
EISEI
  1
*4EISEI
  1
4
  1
*
 70
     0
  1
*
  1
*
  0
XRECORD
  5
FB8
102
{ACAD_REACTORS
330
EEB
102
}
330
EEB
100
AcDbXrecord
280
     1
  1
elec
  1
01_elec-tgbt
  1
*
  1
*
 70
     0
  1
*
  1
*
  0
XRECORD
  5
FB9
102
{ACAD_REACTORS
330
EEB
102
}
330
EEB
100
AcDbXrecord
280
     1
  1
ERAS1F
  1
*2ERAS1F
  1
*
  1
*
 70
     0
  1
*
  1
*
  0
XRECORD
  5
FBA
102
{ACAD_REACTORS
330
EEB
102
}
330
EEB
100
AcDbXrecord
280
     1
  1
existing
  1
afl-* 
  1
*
  1
*
 70
     0
  1
*
  1
*
  0
XRECORD
  5
FBB
102
{ACAD_REACTORS
330
EEB
102
}
330
EEB
100
AcDbXrecord
280
     1
  1
Exit
  1
*exit*
  1
*
  1
*
 70
     0
  1
*
  1
*
  0
XRECORD
  5
FBC
102
{ACAD_REACTORS
330
EEB
102
}
330
EEB
100
AcDbXrecord
280
     1
  1
F
  1
F*
  1
*
  1
*
 70
     0
  1
*
  1
*
  0
XRECORD
  5
FBD
102
{ACAD_REACTORS
330
EEB
102
}
330
EEB
100
AcDbXrecord
280
     1
  1
F(断面)を表示
  1
F*
  1
*
  1
*
 70
     0
  1
*
  1
*
  0
XRECORD
  5
FBE
102
{ACAD_REACTORS
330
EEB
102
}
330
EEB
100
AcDbXrecord
280
     1
  1
F1
  1
*
  1
*
  1
*
 70
     0
  1
*
  1
*
  0
XRECORD
  5
FBF
102
{ACAD_REACTORS
330
EEB
102
}
330
EEB
100
AcDbXrecord
280
     1
  1
face4
  1
*face4*
  1
*
  1
*
 70
     0
  1
*
  1
*
  0
XRECORD
  5
FC0
102
{ACAD_REACTORS
330
EEB
102
}
330
EEB
100
AcDbXrecord
280
     1
  1
FC_CLADDING
  1
*FC*
  1
*
  1
*
 70
     0
  1
*
  1
*
  0
XRECORD
  5
FC1
102
{ACAD_REACTORS
330
EEB
102
}
330
EEB
100
AcDbXrecord
280
     1
  1
FENCE
  1
*FENCE*
  1
*
  1
*
 70
     0
  1
*
  1
*
  0
XRECORD
  5
FC2
102
{ACAD_REACTORS
330
EEB
102
}
330
EEB
100
AcDbXrecord
280
     1
  1
FF
  1
*
  1
*
  1
*
 70
     4
  1
*
  1
*
  0
XRECORD
  5
FC3
102
{ACAD_REACTORS
330
EEB
102
}
330
EEB
100
AcDbXrecord
280
     1
  1
FH
  1
*FH*
  1
*
  1
*
 70
     0
  1
*
  1
*
  0
XRECORD
  5
FC4
102
{ACAD_REACTORS
330
EEB
102
}
330
EEB
100
AcDbXrecord
280
     1
  1
FILTER1
  1
*
  1
*
  1
*
 70
     0
  1
*
  1
*
  0
XRECORD
  5
FC5
102
{ACAD_REACTORS
330
EEB
102
}
330
EEB
100
AcDbXrecord
280
     1
  1
fini
  1
*fini*
  1
*
  1
*
 70
     0
  1
*
  1
*
  0
XRECORD
  5
FC6
102
{ACAD_REACTORS
330
EEB
102
}
330
EEB
100
AcDbXrecord
280
     1
  1
finish
  1
n-*
  1
*
  1
*
 70
     0
  1
*
  1
*
  0
XRECORD
  5
FC7
102
{ACAD_REACTORS
330
EEB
102
}
330
EEB
100
AcDbXrecord
280
     1
  1
FIRE
  1
*FIRE*
  1
*
  1
*
 70
     0
  1
*
  1
*
  0
XRECORD
  5
FC8
102
{ACAD_REACTORS
330
EEB
102
}
330
EEB
100
AcDbXrecord
280
     1
  1
fixture
  1
f-*
  1
*
  1
*
 70
     0
  1
*
  1
*
  0
XRECORD
  5
FC9
102
{ACAD_REACTORS
330
EEB
102
}
330
EEB
100
AcDbXrecord
280
     1
  1
fl
  1
*FL*
  1
*
  1
*
 70
     0
  1
*
  1
*
  0
XRECORD
  5
FCA
102
{ACAD_REACTORS
330
EEB
102
}
330
EEB
100
AcDbXrecord
280
     1
  1
Floor
  1
A-Flor*
  1
*
  1
*
 70
     0
  1
*
  1
*
  0
XRECORD
  5
FCB
102
{ACAD_REACTORS
330
EEB
102
}
330
EEB
100
AcDbXrecord
280
     1
  1
FLOOR PLAN
  1
A-FLR-*
  1
*
  1
*
 70
     0
  1
*
  1
*
  0
XRECORD
  5
FCC
102
{ACAD_REACTORS
330
EEB
102
}
330
EEB
100
AcDbXrecord
280
     1
  1
fr
  1
*
  1
*
  1
*
 70
     4
  1
*
  1
*
  0
XRECORD
  5
FCD
102
{ACAD_REACTORS
330
EEB
102
}
330
EEB
100
AcDbXrecord
280
     1
  1
freeze
  1
*
  1
*
  1
*
 70
     4
  1
*
  1
*
  0
XRECORD
  5
FCE
102
{ACAD_REACTORS
330
EEB
102
}
330
EEB
100
AcDbXrecord
280
     1
  1
FRZ
  1
*
  1
*
  1
*
 70
     4
  1
*
  1
*
  0
XRECORD
  5
FCF
102
{ACAD_REACTORS
330
EEB
102
}
330
EEB
100
AcDbXrecord
280
     1
  1
Fugou
  1
*-Fugou*
  1
*
  1
*
 70
     0
  1
*
  1
*
  0
XRECORD
  5
FD0
102
{ACAD_REACTORS
330
EEB
102
}
330
EEB
100
AcDbXrecord
280
     1
  1
FUGOU-TATEGU
  1
*FUGOU-TATEGU
  1
*
  1
*
 70
     0
  1
*
  1
*
  0
XRECORD
  5
FD1
102
{ACAD_REACTORS
330
EEB
102
}
330
EEB
100
AcDbXrecord
280
     1
  1
FUKI
  1
*FUKI
  1
*
  1
*
 70
     0
  1
*
  1
*
  0
XRECORD
  5
FD2
102
{ACAD_REACTORS
330
EEB
102
}
330
EEB
100
AcDbXrecord
280
     1
  1
FURN
  1
*F-*
  1
*
  1
*
 70
     0
  1
*
  1
*
  0
XRECORD
  5
FD3
102
{ACAD_REACTORS
330
EEB
102
}
330
EEB
100
AcDbXrecord
280
     1
  1
FURNITURE
  1
*FN*
  1
*
  1
*
 70
     0
  1
*
  1
*
  0
XRECORD
  5
FD4
102
{ACAD_REACTORS
330
EEB
102
}
330
EEB
100
AcDbXrecord
280
     1
  1
FUSE_00
  1
*
  1
*
  1
*
 70
     0
  1
*
  1
*
  0
XRECORD
  5
FD5
102
{ACAD_REACTORS
330
EEB
102
}
330
EEB
100
AcDbXrecord
280
     1
  1
G
  1
*-G*
  1
*
  1
*
 70
     0
  1
*
  1
*
  0
XRECORD
  5
FD6
102
{ACAD_REACTORS
330
EEB
102
}
330
EEB
100
AcDbXrecord
280
     1
  1
G(開口)を表示
  1
G*
  1
*
  1
*
 70
     0
  1
*
  1
*
  0
XRECORD
  5
FD7
102
{ACAD_REACTORS
330
EEB
102
}
330
EEB
100
AcDbXrecord
280
     1
  1
GAIKOU
  1
*
  1
*
  1
*
 70
     0
  1
*
  1
*
  0
XRECORD
  5
FD8
102
{ACAD_REACTORS
330
EEB
102
}
330
EEB
100
AcDbXrecord
280
     1
  1
gel
  1
*ILLUMI*
  1
*
  1
*
 70
     0
  1
*
  1
*
  0
XRECORD
  5
FD9
102
{ACAD_REACTORS
330
EEB
102
}
330
EEB
100
AcDbXrecord
280
     1
  1
gen
  1
g*,*$*
  1
*
  1
*
 70
     0
  1
*
  1
*
  0
XRECORD
  5
FDA
102
{ACAD_REACTORS
330
EEB
102
}
330
EEB
100
AcDbXrecord
280
     1
  1
gondora
  1
a-gondora*
  1
*
  1
*
 70
     0
  1
*
  1
*
  0
XRECORD
  5
FDB
102
{ACAD_REACTORS
330
EEB
102
}
330
EEB
100
AcDbXrecord
280
     1
  1
green
  1
*
  1
green
  1
*
 70
     0
  1
*
  1
*
  0
XRECORD
  5
FDC
102
{ACAD_REACTORS
330
EEB
102
}
330
EEB
100
AcDbXrecord
280
     1
  1
GRID
  1
G*
  1
*
  1
*
 70
     0
  1
*
  1
*
  0
XRECORD
  5
FDD
102
{ACAD_REACTORS
330
EEB
102
}
330
EEB
100
AcDbXrecord
280
     1
  1
gris
  1
*
  1
*
  1
*
 70
     0
  1
*
  1
*
  0
XRECORD
  5
FDE
102
{ACAD_REACTORS
330
EEB
102
}
330
EEB
100
AcDbXrecord
280
     1
  1
H
  1
00*,01*,02*,03*,05*,06*,1*,2*,3*,4*,5*,6*,8*,D*,
  1
*
  1
*
 70
     0
  1
*
  1
*
  0
XRECORD
  5
FDF
102
{ACAD_REACTORS
330
EEB
102
}
330
EEB
100
AcDbXrecord
280
     1
  1
H-
  1
H-*
  1
*
  1
*
 70
     0
  1
*
  1
*
  0
XRECORD
  5
FE0
102
{ACAD_REACTORS
330
EEB
102
}
330
EEB
100
AcDbXrecord
280
     1
  1
H-SIN
  1
*H-SIN
  1
*
  1
*
 70
     0
  1
*
  1
*
  0
XRECORD
  5
FE1
102
{ACAD_REACTORS
330
EEB
102
}
330
EEB
100
AcDbXrecord
280
     1
  1
H(見掛)を表示
  1
H*
  1
*
  1
*
 70
     0
  1
*
  1
*
  0
XRECORD
  5
FE2
102
{ACAD_REACTORS
330
EEB
102
}
330
EEB
100
AcDbXrecord
280
     1
  1
HA
  1
*HA*
  1
*
  1
*
 70
     0
  1
*
  1
*
  0
XRECORD
  5
FE3
102
{ACAD_REACTORS
330
EEB
102
}
330
EEB
100
AcDbXrecord
280
     1
  1
haikin
  1
2-*
  1
*
  1
*
 70
     0
  1
*
  1
*
  0
XRECORD
  5
FE4
102
{ACAD_REACTORS
330
EEB
102
}
330
EEB
100
AcDbXrecord
280
     1
  1
HAISEN
  1
*1,HAISEN
  1
*
  1
*
 70
     0
  1
*
  1
*
  0
XRECORD
  5
FE5
102
{ACAD_REACTORS
330
EEB
102
}
330
EEB
100
AcDbXrecord
280
     1
  1
HARI
  1
*HARI
  1
*
  1
*
 70
     0
  1
*
  1
*
  0
XRECORD
  5
FE6
102
{ACAD_REACTORS
330
EEB
102
}
330
EEB
100
AcDbXrecord
280
     1
  1
hasira
  1
*hasira*
  1
*
  1
*
 70
     0
  1
*
  1
*
  0
XRECORD
  5
FE7
102
{ACAD_REACTORS
330
EEB
102
}
330
EEB
100
AcDbXrecord
280
     1
  1
HATCH
  1
*HATCH*
  1
*
  1
*
 70
     0
  1
*
  1
*
  0
XRECORD
  5
FE8
102
{ACAD_REACTORS
330
EEB
102
}
330
EEB
100
AcDbXrecord
280
     1
  1
HCP
  1
*HCP*
  1
*
  1
*
 70
     0
  1
*
  1
*
  0
XRECORD
  5
FE9
102
{ACAD_REACTORS
330
EEB
102
}
330
EEB
100
AcDbXrecord
280
     1
  1
HEISHO
  1
4MAJ
  1
*
  1
*
 70
     0
  1
*
  1
*
  0
XRECORD
  5
FEA
102
{ACAD_REACTORS
330
EEB
102
}
330
EEB
100
AcDbXrecord
280
     1
  1
HEISHO2
  1
4MAJ,3CWD,3TAT
  1
*
  1
*
 70
     0
  1
*
  1
*
  0
XRECORD
  5
FEB
102
{ACAD_REACTORS
330
EEB
102
}
330
EEB
100
AcDbXrecord
280
     1
  1
HIDDEN
  1
*
  1
*
  1
HIDDEN
 70
     0
  1
*
  1
*
  0
XRECORD
  5
FEC
102
{ACAD_REACTORS
330
EEB
102
}
330
EEB
100
AcDbXrecord
280
     1
  1
HOJO
  1
*HOJO
  1
*
  1
*
 70
     0
  1
*
  1
*
  0
XRECORD
  5
FED
102
{ACAD_REACTORS
330
EEB
102
}
330
EEB
100
AcDbXrecord
280
     1
  1
hollywood
  1
*
  1
*
  1
*
 70
    12
  1
*
  1
*
  0
XRECORD
  5
FEE
102
{ACAD_REACTORS
330
EEB
102
}
330
EEB
100
AcDbXrecord
280
     1
  1
HOTEL
  1
*HOT*
  1
*
  1
*
 70
     0
  1
*
  1
*
  0
XRECORD
  5
FEF
102
{ACAD_REACTORS
330
EEB
102
}
330
EEB
100
AcDbXrecord
280
     1
  1
huse
  1
0,defpoints
  1
*
  1
*
 70
     0
  1
*
  1
*
  0
XRECORD
  5
FF0
102
{ACAD_REACTORS
330
EEB
102
}
330
EEB
100
AcDbXrecord
280
     1
  1
HYOKI
  1
*HYOKI
  1
*
  1
*
 70
     0
  1
*
  1
*
  0
XRECORD
  5
FF1
102
{ACAD_REACTORS
330
EEB
102
}
330
EEB
100
AcDbXrecord
280
     1
  1
HYOUKI
  1
*
  1
*
  1
*
 70
     0
  1
*
  1
*
  0
XRECORD
  5
FF2
102
{ACAD_REACTORS
330
EEB
102
}
330
EEB
100
AcDbXrecord
280
     1
  1
i
  1
*
  1
*
  1
*
 70
     0
  1
*
  1
*
  0
XRECORD
  5
FF3
102
{ACAD_REACTORS
330
EEB
102
}
330
EEB
100
AcDbXrecord
280
     1
  1
I(二次部材系))を表示
  1
I*
  1
*
  1
*
 70
     0
  1
*
  1
*
  0
XRECORD
  5
FF4
102
{ACAD_REACTORS
330
EEB
102
}
330
EEB
100
AcDbXrecord
280
     1
  1
I2
  1
*I2CL*
  1
*
  1
*
 70
     0
  1
*
  1
*
  0
XRECORD
  5
FF5
102
{ACAD_REACTORS
330
EEB
102
}
330
EEB
100
AcDbXrecord
280
     1
  1
i2cl
  1
*i2c?*
  1
*
  1
*
 70
     0
  1
*
  1
*
  0
XRECORD
  5
FF6
102
{ACAD_REACTORS
330
EEB
102
}
330
EEB
100
AcDbXrecord
280
     1
  1
i5
  1
*i5*
  1
*
  1
*
 70
     0
  1
*
  1
*
  0
XRECORD
  5
FF7
102
{ACAD_REACTORS
330
EEB
102
}
330
EEB
100
AcDbXrecord
280
     1
  1
i9
  1
*i9*
  1
*
  1
*
 70
     0
  1
*
  1
*
  0
XRECORD
  5
FF8
102
{ACAD_REACTORS
330
EEB
102
}
330
EEB
100
AcDbXrecord
280
     1
  1
in
  1
*
  1
*
  1
*
 70
     4
  1
*
  1
*
  0
XRECORD
  5
FF9
102
{ACAD_REACTORS
330
EEB
102
}
330
EEB
100
AcDbXrecord
280
     1
  1
INSERT図
  1
*
  1
*
  1
*
 70
    12
  1
*
  1
*
  0
XRECORD
  5
FFA
102
{ACAD_REACTORS
330
EEB
102
}
330
EEB
100
AcDbXrecord
280
     1
  1
ISSUE
  1
*-ISSUE1-*
  1
*
  1
*
 70
     0
  1
*
  1
*
  0
XRECORD
  5
FFB
102
{ACAD_REACTORS
330
EEB
102
}
330
EEB
100
AcDbXrecord
280
     1
  1
J
  1
*J*
  1
*
  1
*
 70
     0
  1
*
  1
*
  0
XRECORD
  5
FFC
102
{ACAD_REACTORS
330
EEB
102
}
330
EEB
100
AcDbXrecord
280
     1
  1
K
  1
K*
  1
*
  1
*
 70
     0
  1
*
  1
*
  0
XRECORD
  5
FFD
102
{ACAD_REACTORS
330
EEB
102
}
330
EEB
100
AcDbXrecord
280
     1
  1
KABE
  1
*KABE
  1
*
  1
*
 70
     0
  1
*
  1
*
  0
XRECORD
  5
FFE
102
{ACAD_REACTORS
330
EEB
102
}
330
EEB
100
AcDbXrecord
280
     1
  1
KABESHIN
  1
*A12
  1
*
  1
*
 70
     0
  1
*
  1
*
  0
XRECORD
  5
FFF
102
{ACAD_REACTORS
330
EEB
102
}
330
EEB
100
AcDbXrecord
280
     1
  1
KAGU
  1
*KAGU*
  1
*
  1
*
 70
     0
  1
*
  1
*
  0
XRECORD
  5
1000
102
{ACAD_REACTORS
330
EEB
102
}
330
EEB
100
AcDbXrecord
280
     1
  1
key
  1
keyplan
  1
*
  1
*
 70
     0
  1
*
  1
*
  0
XRECORD
  5
1001
102
{ACAD_REACTORS
330
EEB
102
}
330
EEB
100
AcDbXrecord
280
     1
  1
KI
  1
KI*
  1
*
  1
*
 70
     0
  1
*
  1
*
  0
XRECORD
  5
1002
102
{ACAD_REACTORS
330
EEB
102
}
330
EEB
100
AcDbXrecord
280
     1
  1
KIGO
  1
*KIGO*
  1
*
  1
*
 70
     0
  1
*
  1
*
  0
XRECORD
  5
1003
102
{ACAD_REACTORS
330
EEB
102
}
330
EEB
100
AcDbXrecord
280
     1
  1
KIJUN
  1
*KIJUN
  1
*
  1
*
 70
     0
  1
*
  1
*
  0
XRECORD
  5
1004
102
{ACAD_REACTORS
330
EEB
102
}
330
EEB
100
AcDbXrecord
280
     1
  1
kiso
  1
f1*
  1
*
  1
*
 70
     0
  1
*
  1
*
  0
XRECORD
  5
1005
102
{ACAD_REACTORS
330
EEB
102
}
330
EEB
100
AcDbXrecord
280
     1
  1
KSIN
  1
*2KSIN
  1
21
  1
*
 70
     0
  1
*
  1
*
  0
XRECORD
  5
1006
102
{ACAD_REACTORS
330
EEB
102
}
330
EEB
100
AcDbXrecord
280
     1
  1
kui
  1
*
  1
*
  1
*
 70
     4
  1
*
  1
*
  0
XRECORD
  5
1007
102
{ACAD_REACTORS
330
EEB
102
}
330
EEB
100
AcDbXrecord
280
     1
  1
KUTAI
  1
*
  1
*
  1
*
 70
     0
  1
*
  1
*
  0
XRECORD
  5
1008
102
{ACAD_REACTORS
330
EEB
102
}
330
EEB
100
AcDbXrecord
280
     1
  1
L
  1
L*
  1
*
  1
*
 70
     0
  1
*
  1
*
  0
XRECORD
  5
1009
102
{ACAD_REACTORS
330
EEB
102
}
330
EEB
100
AcDbXrecord
280
     1
  1
LEGEND
  1
*-C-*
  1
*
  1
*
 70
     0
  1
*
  1
*
  0
XRECORD
  5
100A
102
{ACAD_REACTORS
330
EEB
102
}
330
EEB
100
AcDbXrecord
280
     1
  1
LGS
  1
*LGS*
  1
*
  1
*
 70
     0
  1
*
  1
*
  0
XRECORD
  5
100B
102
{ACAD_REACTORS
330
EEB
102
}
330
EEB
100
AcDbXrecord
280
     1
  1
light
  1
*light*
  1
*
  1
*
 70
     0
  1
*
  1
*
  0
XRECORD
  5
100C
102
{ACAD_REACTORS
330
EEB
102
}
330
EEB
100
AcDbXrecord
280
     1
  1
LIST
  1
*LIST*
  1
*
  1
*
 70
     0
  1
*
  1
*
  0
XRECORD
  5
100D
102
{ACAD_REACTORS
330
EEB
102
}
330
EEB
100
AcDbXrecord
280
     1
  1
lixo
  1
*
  1
*
  1
*
 70
  3072
  1
*
  1
*
  0
XRECORD
  5
100E
102
{ACAD_REACTORS
330
EEB
102
}
330
EEB
100
AcDbXrecord
280
     1
  1
LOCK
  1
*
  1
*
  1
*
 70
   256
  1
*
  1
*
  0
XRECORD
  5
100F
102
{ACAD_REACTORS
330
EEB
102
}
330
EEB
100
AcDbXrecord
280
     1
  1
LTA
  1
*
  1
*
  1
*
 70
   768
  1
*
  1
*
  0
XRECORD
  5
1010
102
{ACAD_REACTORS
330
EEB
102
}
330
EEB
100
AcDbXrecord
280
     1
  1
Ｌ建具
  1
L*tategu*
  1
*
  1
*
 70
     0
  1
*
  1
*
  0
XRECORD
  5
1011
102
{ACAD_REACTORS
330
EEB
102
}
330
EEB
100
AcDbXrecord
280
     1
  1
M
  1
M*
  1
*
  1
*
 70
     0
  1
*
  1
*
  0
XRECORD
  5
1012
102
{ACAD_REACTORS
330
EEB
102
}
330
EEB
100
AcDbXrecord
280
     1
  1
MA
  1
MA*
  1
*
  1
*
 70
     0
  1
*
  1
*
  0
XRECORD
  5
1013
102
{ACAD_REACTORS
330
EEB
102
}
330
EEB
100
AcDbXrecord
280
     1
  1
MACONNERIE
  1
*
  1
*
  1
*
 70
     0
  1
*
  1
*
  0
XRECORD
  5
1014
102
{ACAD_REACTORS
330
EEB
102
}
330
EEB
100
AcDbXrecord
280
     1
  1
magenta
  1
*
  1
magenta
  1
*
 70
     0
  1
*
  1
*
  0
XRECORD
  5
1015
102
{ACAD_REACTORS
330
EEB
102
}
330
EEB
100
AcDbXrecord
280
     1
  1
magenta-bleu
  1
*
  1
magenta,bleu
  1
*
 70
     0
  1
*
  1
*
  0
XRECORD
  5
1016
102
{ACAD_REACTORS
330
EEB
102
}
330
EEB
100
AcDbXrecord
280
     1
  1
maji
  1
*A12
  1
*
  1
*
 70
     0
  1
*
  1
*
  0
XRECORD
  5
1017
102
{ACAD_REACTORS
330
EEB
102
}
330
EEB
100
AcDbXrecord
280
     1
  1
MAJIKIRI
  1
*MAJIKIRI
  1
*
  1
*
 70
     0
  1
*
  1
*
  0
XRECORD
  5
1018
102
{ACAD_REACTORS
330
EEB
102
}
330
EEB
100
AcDbXrecord
280
     1
  1
marco
  1
marco*
  1
*
  1
*
 70
     0
  1
*
  1
*
  0
XRECORD
  5
1019
102
{ACAD_REACTORS
330
EEB
102
}
330
EEB
100
AcDbXrecord
280
     1
  1
MB
  1
*MB
  1
*
  1
*
 70
     0
  1
*
  1
*
  0
XRECORD
  5
101A
102
{ACAD_REACTORS
330
EEB
102
}
330
EEB
100
AcDbXrecord
280
     1
  1
meji
  1
*MEJI
  1
*
  1
*
 70
     0
  1
*
  1
*
  0
XRECORD
  5
101B
102
{ACAD_REACTORS
330
EEB
102
}
330
EEB
100
AcDbXrecord
280
     1
  1
merceologico
  1
mq*
  1
*
  1
*
 70
     0
  1
*
  1
*
  0
XRECORD
  5
101C
102
{ACAD_REACTORS
330
EEB
102
}
330
EEB
100
AcDbXrecord
280
     1
  1
MILL
  1
*MILL*
  1
*
  1
*
 70
     0
  1
*
  1
*
  0
XRECORD
  5
101D
102
{ACAD_REACTORS
330
EEB
102
}
330
EEB
100
AcDbXrecord
280
     1
  1
MILLWORK
  1
*mILL*
  1
*
  1
*
 70
     0
  1
*
  1
*
  0
XRECORD
  5
101E
102
{ACAD_REACTORS
330
EEB
102
}
330
EEB
100
AcDbXrecord
280
     1
  1
miwa
  1
*
  1
*
  1
*
 70
     0
  1
*
  1
*
  0
XRECORD
  5
101F
102
{ACAD_REACTORS
330
EEB
102
}
330
EEB
100
AcDbXrecord
280
     1
  1
MOJI
  1
*MOJI
  1
*
  1
*
 70
     0
  1
*
  1
*
  0
XRECORD
  5
1020
102
{ACAD_REACTORS
330
EEB
102
}
330
EEB
100
AcDbXrecord
280
     1
  1
MOJI100
  1
*5MOJI100
  1
3
  1
*
 70
     0
  1
*
  1
*
  0
XRECORD
  5
1021
102
{ACAD_REACTORS
330
EEB
102
}
330
EEB
100
AcDbXrecord
280
     1
  1
N
  1
*N*
  1
*
  1
*
 70
     0
  1
*
  1
*
  0
XRECORD
  5
1022
102
{ACAD_REACTORS
330
EEB
102
}
330
EEB
100
AcDbXrecord
280
     1
  1
N-
  1
N-*
  1
*
  1
*
 70
     0
  1
*
  1
*
  0
XRECORD
  5
1023
102
{ACAD_REACTORS
330
EEB
102
}
330
EEB
100
AcDbXrecord
280
     1
  1
NAM
  1
*NAM*
  1
*
  1
*
 70
     0
  1
*
  1
*
  0
XRECORD
  5
1024
102
{ACAD_REACTORS
330
EEB
102
}
330
EEB
100
AcDbXrecord
280
     1
  1
NEW
  1
*NEW*
  1
*
  1
*
 70
     0
  1
*
  1
*
  0
XRECORD
  5
1025
102
{ACAD_REACTORS
330
EEB
102
}
330
EEB
100
AcDbXrecord
280
     1
  1
NHK
  1
N*
  1
*
  1
*
 70
     0
  1
*
  1
*
  0
XRECORD
  5
1026
102
{ACAD_REACTORS
330
EEB
102
}
330
EEB
100
AcDbXrecord
280
     1
  1
no xref
  1
~*|*
  1
*
  1
*
 70
     0
  1
*
  1
*
  0
XRECORD
  5
1027
102
{ACAD_REACTORS
330
EEB
102
}
330
EEB
100
AcDbXrecord
280
     1
  1
note
  1
tca-6f|*note*
  1
*
  1
*
 70
     0
  1
*
  1
*
  0
XRECORD
  5
1028
102
{ACAD_REACTORS
330
EEB
102
}
330
EEB
100
AcDbXrecord
280
     1
  1
NUM
  1
*NUM*
  1
*
  1
*
 70
     0
  1
*
  1
*
  0
XRECORD
  5
1029
102
{ACAD_REACTORS
330
EEB
102
}
330
EEB
100
AcDbXrecord
280
     1
  1
NUMB
  1
*NUM*
  1
*
  1
*
 70
     0
  1
*
  1
*
  0
XRECORD
  5
102A
102
{ACAD_REACTORS
330
EEB
102
}
330
EEB
100
AcDbXrecord
280
     1
  1
O
  1
*O*
  1
*
  1
*
 70
     0
  1
*
  1
*
  0
XRECORD
  5
102B
102
{ACAD_REACTORS
330
EEB
102
}
330
EEB
100
AcDbXrecord
280
     1
  1
OF
  1
*
  1
*
  1
*
 70
     3
  1
*
  1
*
  0
XRECORD
  5
102C
102
{ACAD_REACTORS
330
EEB
102
}
330
EEB
100
AcDbXrecord
280
     1
  1
OFF
  1
*
  1
*
  1
*
 70
     3
  1
*
  1
*
  0
XRECORD
  5
102D
102
{ACAD_REACTORS
330
EEB
102
}
330
EEB
100
AcDbXrecord
280
     1
  1
on
  1
*
  1
*
  1
*
 70
    13
  1
*
  1
*
  0
XRECORD
  5
102E
102
{ACAD_REACTORS
330
EEB
102
}
330
EEB
100
AcDbXrecord
280
     1
  1
option 1
  1
1*
  1
*
  1
*
 70
     0
  1
*
  1
*
  0
XRECORD
  5
102F
102
{ACAD_REACTORS
330
EEB
102
}
330
EEB
100
AcDbXrecord
280
     1
  1
option 2
  1
2*
  1
*
  1
*
 70
     0
  1
*
  1
*
  0
XRECORD
  5
1030
102
{ACAD_REACTORS
330
EEB
102
}
330
EEB
100
AcDbXrecord
280
     1
  1
OUTLINE
  1
T_*|OUTLINE
  1
*
  1
*
 70
     0
  1
*
  1
*
  0
XRECORD
  5
1031
102
{ACAD_REACTORS
330
EEB
102
}
330
EEB
100
AcDbXrecord
280
     1
  1
P
  1
*-P*
  1
*
  1
*
 70
     0
  1
*
  1
*
  0
XRECORD
  5
1032
102
{ACAD_REACTORS
330
EEB
102
}
330
EEB
100
AcDbXrecord
280
     1
  1
pa
  1
*pa*
  1
*
  1
*
 70
     0
  1
*
  1
*
  0
XRECORD
  5
1033
102
{ACAD_REACTORS
330
EEB
102
}
330
EEB
100
AcDbXrecord
280
     1
  1
PALFOND
  1
*
  1
*
  1
*
 70
    13
  1
*
  1
*
  0
XRECORD
  5
1034
102
{ACAD_REACTORS
330
EEB
102
}
330
EEB
100
AcDbXrecord
280
     1
  1
PAT
  1
*PAT*
  1
*
  1
*
 70
     0
  1
*
  1
*
  0
XRECORD
  5
1035
102
{ACAD_REACTORS
330
EEB
102
}
330
EEB
100
AcDbXrecord
280
     1
  1
PC
  1
PC*
  1
*
  1
*
 70
     0
  1
*
  1
*
  0
XRECORD
  5
1036
102
{ACAD_REACTORS
330
EEB
102
}
330
EEB
100
AcDbXrecord
280
     1
  1
PISO
  1
*PISO
  1
*
  1
*
 70
     0
  1
*
  1
*
  0
XRECORD
  5
1037
102
{ACAD_REACTORS
330
EEB
102
}
330
EEB
100
AcDbXrecord
280
     1
  1
PLAN
  1
A*,B*,SITE*
  1
*
  1
*
 70
     0
  1
*
  1
*
  0
XRECORD
  5
1038
102
{ACAD_REACTORS
330
EEB
102
}
330
EEB
100
AcDbXrecord
280
     1
  1
PLMB
  1
*PLMB*
  1
*
  1
*
 70
     0
  1
*
  1
*
  0
XRECORD
  5
1039
102
{ACAD_REACTORS
330
EEB
102
}
330
EEB
100
AcDbXrecord
280
     1
  1
plot
  1
*
  1
*
  1
*
 70
     1
  1
*
  1
*
  0
XRECORD
  5
103A
102
{ACAD_REACTORS
330
EEB
102
}
330
EEB
100
AcDbXrecord
280
     1
  1
PLUMB
  1
*PLUMB*
  1
*
  1
*
 70
     0
  1
*
  1
*
  0
XRECORD
  5
103B
102
{ACAD_REACTORS
330
EEB
102
}
330
EEB
100
AcDbXrecord
280
     1
  1
PNL
  1
*PNL*
  1
*
  1
*
 70
     0
  1
*
  1
*
  0
XRECORD
  5
103C
102
{ACAD_REACTORS
330
EEB
102
}
330
EEB
100
AcDbXrecord
280
     1
  1
power
  1
p-*
  1
*
  1
*
 70
     0
  1
*
  1
*
  0
XRECORD
  5
103D
102
{ACAD_REACTORS
330
EEB
102
}
330
EEB
100
AcDbXrecord
280
     1
  1
PRT
  1
*PRT*
  1
*
  1
*
 70
     0
  1
*
  1
*
  0
XRECORD
  5
103E
102
{ACAD_REACTORS
330
EEB
102
}
330
EEB
100
AcDbXrecord
280
     1
  1
q
  1
*
  1
*
  1
*
 70
     4
  1
*
  1
*
  0
XRECORD
  5
103F
102
{ACAD_REACTORS
330
EEB
102
}
330
EEB
100
AcDbXrecord
280
     1
  1
R
  1
R*
  1
*
  1
*
 70
     0
  1
*
  1
*
  0
XRECORD
  5
1040
102
{ACAD_REACTORS
330
EEB
102
}
330
EEB
100
AcDbXrecord
280
     1
  1
rack
  1
*rack*
  1
*
  1
*
 70
     0
  1
*
  1
*
  0
XRECORD
  5
1041
102
{ACAD_REACTORS
330
EEB
102
}
330
EEB
100
AcDbXrecord
280
     1
  1
RC
  1
*RC
  1
*
  1
*
 70
     0
  1
*
  1
*
  0
XRECORD
  5
1042
102
{ACAD_REACTORS
330
EEB
102
}
330
EEB
100
AcDbXrecord
280
     1
  1
RCP
  1
A*,C*
  1
*
  1
*
 70
     0
  1
*
  1
*
  0
XRECORD
  5
1043
102
{ACAD_REACTORS
330
EEB
102
}
330
EEB
100
AcDbXrecord
280
     1
  1
rm
  1
*r*
  1
*
  1
*
 70
     0
  1
*
  1
*
  0
XRECORD
  5
1044
102
{ACAD_REACTORS
330
EEB
102
}
330
EEB
100
AcDbXrecord
280
     1
  1
RMTAGS
  1
R*
  1
*
  1
*
 70
     0
  1
*
  1
*
  0
XRECORD
  5
1045
102
{ACAD_REACTORS
330
EEB
102
}
330
EEB
100
AcDbXrecord
280
     1
  1
RNUM
  1
*NUM*
  1
*
  1
*
 70
     0
  1
*
  1
*
  0
XRECORD
  5
1046
102
{ACAD_REACTORS
330
EEB
102
}
330
EEB
100
AcDbXrecord
280
     1
  1
ROOM
  1
*RM*
  1
*
  1
*
 70
     0
  1
*
  1
*
  0
XRECORD
  5
1047
102
{ACAD_REACTORS
330
EEB
102
}
330
EEB
100
AcDbXrecord
280
     1
  1
roomno
  1
*num*
  1
*
  1
*
 70
     0
  1
*
  1
*
  0
XRECORD
  5
1048
102
{ACAD_REACTORS
330
EEB
102
}
330
EEB
100
AcDbXrecord
280
     1
  1
rouge
  1
*
  1
1
  1
*
 70
     1
  1
*
  1
*
  0
XRECORD
  5
1049
102
{ACAD_REACTORS
330
EEB
102
}
330
EEB
100
AcDbXrecord
280
     1
  1
rtkl
  1
*rtkl*
  1
*
  1
*
 70
     0
  1
*
  1
*
  0
XRECORD
  5
104A
102
{ACAD_REACTORS
330
EEB
102
}
330
EEB
100
AcDbXrecord
280
     1
  1
S
  1
0,05*,11*,12*,13*,14*,20*,21*,22*,55*,56*,
  1
*
  1
*
 70
     0
  1
*
  1
*
  0
XRECORD
  5
104B
102
{ACAD_REACTORS
330
EEB
102
}
330
EEB
100
AcDbXrecord
280
     1
  1
saciencewold
  1
*
  1
*
  1
*
 70
     0
  1
*
  1
*
  0
XRECORD
  5
104C
102
{ACAD_REACTORS
330
EEB
102
}
330
EEB
100
AcDbXrecord
280
     1
  1
SETUBI
  1
*SETUBI
  1
*
  1
*
 70
     0
  1
*
  1
*
  0
XRECORD
  5
104D
102
{ACAD_REACTORS
330
EEB
102
}
330
EEB
100
AcDbXrecord
280
     1
  1
SHITU
  1
*SHITUMEI*
  1
*
  1
*
 70
     0
  1
*
  1
*
  0
XRECORD
  5
104E
102
{ACAD_REACTORS
330
EEB
102
}
330
EEB
100
AcDbXrecord
280
     1
  1
SHITUMEI
  1
*SHITUMEI2
  1
*
  1
*
 70
     0
  1
*
  1
*
  0
XRECORD
  5
104F
102
{ACAD_REACTORS
330
EEB
102
}
330
EEB
100
AcDbXrecord
280
     1
  1
SIAG
  1
*3SIAG
  1
*
  1
*
 70
     0
  1
*
  1
*
  0
XRECORD
  5
1050
102
{ACAD_REACTORS
330
EEB
102
}
330
EEB
100
AcDbXrecord
280
     1
  1
SIAG-N
  1
*3SIAG-N
  1
7
  1
*
 70
     0
  1
*
  1
*
  0
XRECORD
  5
1051
102
{ACAD_REACTORS
330
EEB
102
}
330
EEB
100
AcDbXrecord
280
     1
  1
SIAG3
  1
*3SIAG3
  1
3
  1
*
 70
     0
  1
*
  1
*
  0
XRECORD
  5
1052
102
{ACAD_REACTORS
330
EEB
102
}
330
EEB
100
AcDbXrecord
280
     1
  1
sin
  1
*SIN*
  1
*
  1
*
 70
     0
  1
*
  1
*
  0
XRECORD
  5
1053
102
{ACAD_REACTORS
330
EEB
102
}
330
EEB
100
AcDbXrecord
280
     1
  1
Sinm
  1
*-Sinm*
  1
*
  1
*
 70
     0
  1
*
  1
*
  0
XRECORD
  5
1054
102
{ACAD_REACTORS
330
EEB
102
}
330
EEB
100
AcDbXrecord
280
     1
  1
SITA
  1
*3SITA
  1
*
  1
*
 70
     0
  1
*
  1
*
  0
XRECORD
  5
1055
102
{ACAD_REACTORS
330
EEB
102
}
330
EEB
100
AcDbXrecord
280
     1
  1
siyah
  1
*
  1
*
  1
*
 70
     4
  1
*
  1
siyah
  0
XRECORD
  5
1056
102
{ACAD_REACTORS
330
EEB
102
}
330
EEB
100
AcDbXrecord
280
     1
  1
SS
  1
*SS*
  1
*
  1
*
 70
     0
  1
*
  1
*
  0
XRECORD
  5
1057
102
{ACAD_REACTORS
330
EEB
102
}
330
EEB
100
AcDbXrecord
280
     1
  1
ST
  1
*ST*
  1
*
  1
*
 70
     0
  1
*
  1
*
  0
XRECORD
  5
1058
102
{ACAD_REACTORS
330
EEB
102
}
330
EEB
100
AcDbXrecord
280
     1
  1
STA
  1
STA*
  1
*
  1
*
 70
     0
  1
*
  1
*
  0
XRECORD
  5
1059
102
{ACAD_REACTORS
330
EEB
102
}
330
EEB
100
AcDbXrecord
280
     1
  1
stairs
  1
*sta*
  1
*
  1
*
 70
     0
  1
*
  1
*
  0
XRECORD
  5
105A
102
{ACAD_REACTORS
330
EEB
102
}
330
EEB
100
AcDbXrecord
280
     1
  1
SUGA5
  1
*4SUGA5
  1
5
  1
*
 70
     0
  1
*
  1
*
  0
XRECORD
  5
105B
102
{ACAD_REACTORS
330
EEB
102
}
330
EEB
100
AcDbXrecord
280
     1
  1
SUNP
  1
*5SUNP100
  1
1
  1
*
 70
     0
  1
*
  1
*
  0
XRECORD
  5
105C
102
{ACAD_REACTORS
330
EEB
102
}
330
EEB
100
AcDbXrecord
280
     1
  1
SUNP100
  1
*5SUNP100
  1
*
  1
*
 70
     0
  1
*
  1
*
  0
XRECORD
  5
105D
102
{ACAD_REACTORS
330
EEB
102
}
330
EEB
100
AcDbXrecord
280
     1
  1
T
  1
T*
  1
*
  1
*
 70
     0
  1
*
  1
*
  0
XRECORD
  5
105E
102
{ACAD_REACTORS
330
EEB
102
}
330
EEB
100
AcDbXrecord
280
     1
  1
TAKASA
  1
*
  1
2
  1
*
 70
     0
  1
*
  1
*
  0
XRECORD
  5
105F
102
{ACAD_REACTORS
330
EEB
102
}
330
EEB
100
AcDbXrecord
280
     1
  1
TATE161
  1
*4TATE161
  1
161
  1
*
 70
     0
  1
*
  1
*
  0
XRECORD
  5
1060
102
{ACAD_REACTORS
330
EEB
102
}
330
EEB
100
AcDbXrecord
280
     1
  1
TATEGU
  1
*TATEGU
  1
*
  1
*
 70
     0
  1
*
  1
*
  0
XRECORD
  5
1061
102
{ACAD_REACTORS
330
EEB
102
}
330
EEB
100
AcDbXrecord
280
     1
  1
ten
  1
*ten*
  1
*
  1
*
 70
     0
  1
*
  1
*
  0
XRECORD
  5
1062
102
{ACAD_REACTORS
330
EEB
102
}
330
EEB
100
AcDbXrecord
280
     1
  1
TENJYOU
  1
C-*
  1
*
  1
*
 70
     0
  1
*
  1
*
  0
XRECORD
  5
1063
102
{ACAD_REACTORS
330
EEB
102
}
330
EEB
100
AcDbXrecord
280
     1
  1
TENJYOUNAI
  1
CI-*
  1
*
  1
*
 70
     0
  1
*
  1
*
  0
XRECORD
  5
1064
102
{ACAD_REACTORS
330
EEB
102
}
330
EEB
100
AcDbXrecord
280
     1
  1
test
  1
keyplan
  1
*
  1
*
 70
     0
  1
*
  1
*
  0
XRECORD
  5
1065
102
{ACAD_REACTORS
330
EEB
102
}
330
EEB
100
AcDbXrecord
280
     1
  1
text
  1
*text*
  1
*
  1
*
 70
     0
  1
*
  1
*
  0
XRECORD
  5
1066
102
{ACAD_REACTORS
330
EEB
102
}
330
EEB
100
AcDbXrecord
280
     1
  1
thaw
  1
*
  1
*
  1
*
 70
    12
  1
*
  1
*
  0
XRECORD
  5
1067
102
{ACAD_REACTORS
330
EEB
102
}
330
EEB
100
AcDbXrecord
280
     1
  1
TITL
  1
*8TITL
  1
4
  1
*
 70
     0
  1
*
  1
*
  0
XRECORD
  5
1068
102
{ACAD_REACTORS
330
EEB
102
}
330
EEB
100
AcDbXrecord
280
     1
  1
tnjyou
  1
c-*
  1
*
  1
*
 70
     0
  1
*
  1
*
  0
XRECORD
  5
1069
102
{ACAD_REACTORS
330
EEB
102
}
330
EEB
100
AcDbXrecord
280
     1
  1
tori
  1
*A11
  1
*
  1
*
 70
     0
  1
*
  1
*
  0
XRECORD
  5
106A
102
{ACAD_REACTORS
330
EEB
102
}
330
EEB
100
AcDbXrecord
280
     1
  1
TORISHIN
  1
*A11
  1
*
  1
*
 70
     0
  1
*
  1
*
  0
XRECORD
  5
106B
102
{ACAD_REACTORS
330
EEB
102
}
330
EEB
100
AcDbXrecord
280
     1
  1
tr
  1
*tr*
  1
*
  1
*
 70
     0
  1
*
  1
*
  0
XRECORD
  5
106C
102
{ACAD_REACTORS
330
EEB
102
}
330
EEB
100
AcDbXrecord
280
     1
  1
TSIN
  1
*2TSIN
  1
*
  1
*
 70
     0
  1
*
  1
*
  0
XRECORD
  5
106D
102
{ACAD_REACTORS
330
EEB
102
}
330
EEB
100
AcDbXrecord
280
     1
  1
TXT
  1
*TX*
  1
*
  1
*
 70
     0
  1
*
  1
*
  0
XRECORD
  5
106E
102
{ACAD_REACTORS
330
EEB
102
}
330
EEB
100
AcDbXrecord
280
     1
  1
UNFREEZ
  1
*
  1
*
  1
*
 70
    12
  1
*
  1
*
  0
XRECORD
  5
106F
102
{ACAD_REACTORS
330
EEB
102
}
330
EEB
100
AcDbXrecord
280
     1
  1
UNROCK
  1
*
  1
*
  1
*
 70
   768
  1
*
  1
*
  0
XRECORD
  5
1070
102
{ACAD_REACTORS
330
EEB
102
}
330
EEB
100
AcDbXrecord
280
     1
  1
wada
  1
*
  1
*
  1
*
 70
     0
  1
*
  1
*
  0
XRECORD
  5
1071
102
{ACAD_REACTORS
330
EEB
102
}
330
EEB
100
AcDbXrecord
280
     1
  1
waku
  1
waku
  1
*
  1
*
 70
     0
  1
*
  1
*
  0
XRECORD
  5
1072
102
{ACAD_REACTORS
330
EEB
102
}
330
EEB
100
AcDbXrecord
280
     1
  1
X
  1
*$*$*
  1
*
  1
*
 70
     0
  1
*
  1
*
  0
XRECORD
  5
1073
102
{ACAD_REACTORS
330
EEB
102
}
330
EEB
100
AcDbXrecord
280
     1
  1
X(敷地)を表示
  1
X*
  1
*
  1
*
 70
     0
  1
*
  1
*
  0
XRECORD
  5
1074
102
{ACAD_REACTORS
330
EEB
102
}
330
EEB
100
AcDbXrecord
280
     1
  1
xref
  1
ground*
  1
*
  1
*
 70
     0
  1
*
  1
*
  0
XRECORD
  5
1075
102
{ACAD_REACTORS
330
EEB
102
}
330
EEB
100
AcDbXrecord
280
     1
  1
YAJI
  1
*YAJI*
  1
*
  1
*
 70
     0
  1
*
  1
*
  0
XRECORD
  5
1076
102
{ACAD_REACTORS
330
EEB
102
}
330
EEB
100
AcDbXrecord
280
     1
  1
yellow
  1
*
  1
yellow
  1
*
 70
     0
  1
*
  1
*
  0
XRECORD
  5
1077
102
{ACAD_REACTORS
330
EEB
102
}
330
EEB
100
AcDbXrecord
280
     1
  1
YUKA
  1
F-*
  1
*
  1
*
 70
     0
  1
*
  1
*
  0
XRECORD
  5
1078
102
{ACAD_REACTORS
330
EEB
102
}
330
EEB
100
AcDbXrecord
280
     1
  1
yその他
  1
y*
  1
*
  1
*
 70
     0
  1
*
  1
*
  0
XRECORD
  5
1079
102
{ACAD_REACTORS
330
EEB
102
}
330
EEB
100
AcDbXrecord
280
     1
  1
Z
  1
Z*
  1
*
  1
*
 70
     0
  1
*
  1
*
  0
XRECORD
  5
107A
102
{ACAD_REACTORS
330
EEB
102
}
330
EEB
100
AcDbXrecord
280
     1
  1
ZATU
  1
*ZATU
  1
*
  1
*
 70
     0
  1
*
  1
*
  0
XRECORD
  5
107B
102
{ACAD_REACTORS
330
EEB
102
}
330
EEB
100
AcDbXrecord
280
     1
  1
z図枠
  1
z*
  1
*
  1
*
 70
     0
  1
*
  1
*
  0
XRECORD
  5
107C
102
{ACAD_REACTORS
330
EEB
102
}
330
EEB
100
AcDbXrecord
280
     1
  1
к
  1
к-*
  1
*
  1
*
 70
     0
  1
*
  1
*
  0
XRECORD
  5
107D
102
{ACAD_REACTORS
330
EEB
102
}
330
EEB
100
AcDbXrecord
280
     1
  1
перегородки
  1
*перегород*
  1
*
  1
*
 70
     0
  1
*
  1
*
  0
XRECORD
  5
107E
102
{ACAD_REACTORS
330
EEB
102
}
330
EEB
100
AcDbXrecord
280
     1
  1
イベント給水
  1
*い*
  1
*
  1
*
 70
     0
  1
*
  1
*
  0
XRECORD
  5
107F
102
{ACAD_REACTORS
330
EEB
102
}
330
EEB
100
AcDbXrecord
280
     1
  1
ガラス
  1
*HMOJI
  1
*
  1
*
 70
     0
  1
*
  1
*
  0
XRECORD
  5
1080
102
{ACAD_REACTORS
330
EEB
102
}
330
EEB
100
AcDbXrecord
280
     1
  1
キ-プラン
  1
*HMOJI,*HOJO2,*HOJO4,*SINSEI
  1
*
  1
*
 70
     0
  1
*
  1
*
  0
XRECORD
  5
1081
102
{ACAD_REACTORS
330
EEB
102
}
330
EEB
100
AcDbXrecord
280
     1
  1
キープラン
  1
キープラン*
  1
*
  1
*
 70
     0
  1
*
  1
*
  0
XRECORD
  5
1082
102
{ACAD_REACTORS
330
EEB
102
}
330
EEB
100
AcDbXrecord
280
     1
  1
さーくる
  1
*
  1
*
  1
*
 70
     0
  1
*
  1
*
  0
XRECORD
  5
1083
102
{ACAD_REACTORS
330
EEB
102
}
330
EEB
100
AcDbXrecord
280
     1
  1
シェルター
  1
シェルター*
  1
*
  1
*
 70
     0
  1
*
  1
*
  0
XRECORD
  5
1084
102
{ACAD_REACTORS
330
EEB
102
}
330
EEB
100
AcDbXrecord
280
     1
  1
すべてに反映
  1
*す*
  1
*
  1
*
 70
     0
  1
*
  1
*
  0
XRECORD
  5
1085
102
{ACAD_REACTORS
330
EEB
102
}
330
EEB
100
AcDbXrecord
280
     1
  1
スロープ
  1
SL*
  1
*
  1
*
 70
     0
  1
*
  1
*
  0
XRECORD
  5
1086
102
{ACAD_REACTORS
330
EEB
102
}
330
EEB
100
AcDbXrecord
280
     1
  1
タイル割付平面図
  1
タイル*
  1
*
  1
*
 70
     0
  1
*
  1
*
  0
XRECORD
  5
1087
102
{ACAD_REACTORS
330
EEB
102
}
330
EEB
100
AcDbXrecord
280
     1
  1
ﾃｷｽﾄのみ表示
  1
*NZ5-TEXT
  1
*
  1
*
 70
     0
  1
*
  1
*
  0
XRECORD
  5
1088
102
{ACAD_REACTORS
330
EEB
102
}
330
EEB
100
AcDbXrecord
280
     1
  1
ハッチング
  1
*ハッチング
  1
*
  1
*
 70
     0
  1
*
  1
*
  0
XRECORD
  5
1089
102
{ACAD_REACTORS
330
EEB
102
}
330
EEB
100
AcDbXrecord
280
     1
  1
フリーズ
  1
*
  1
*
  1
*
 70
     4
  1
*
  1
*
  0
XRECORD
  5
108A
102
{ACAD_REACTORS
330
EEB
102
}
330
EEB
100
AcDbXrecord
280
     1
  1
フリーズof
  1
*
  1
*
  1
*
 70
    12
  1
*
  1
*
  0
XRECORD
  5
108B
102
{ACAD_REACTORS
330
EEB
102
}
330
EEB
100
AcDbXrecord
280
     1
  1
ﾌﾘｰｽﾞ画層非表示
  1
*
  1
*
  1
*
 70
    12
  1
*
  1
*
  0
XRECORD
  5
108C
102
{ACAD_REACTORS
330
EEB
102
}
330
EEB
100
AcDbXrecord
280
     1
  1
ﾌﾘｰｽﾞ画面非表示
  1
*
  1
*
  1
*
 70
    12
  1
*
  1
*
  0
XRECORD
  5
108D
102
{ACAD_REACTORS
330
EEB
102
}
330
EEB
100
AcDbXrecord
280
     1
  1
ﾌﾘｰｽﾞ解除
  1
*
  1
*
  1
*
 70
    12
  1
*
  1
*
  0
XRECORD
  5
108E
102
{ACAD_REACTORS
330
EEB
102
}
330
EEB
100
AcDbXrecord
280
     1
  1
フリーズ解除
  1
*
  1
*
  1
*
 70
    12
  1
*
  1
*
  0
XRECORD
  5
108F
102
{ACAD_REACTORS
330
EEB
102
}
330
EEB
100
AcDbXrecord
280
     1
  1
ﾌﾟﾚｾﾞﾝ枠
  1
*|ﾌﾟﾚｾﾞﾝ枠
  1
*
  1
*
 70
     0
  1
*
  1
*
  0
XRECORD
  5
1090
102
{ACAD_REACTORS
330
EEB
102
}
330
EEB
100
AcDbXrecord
280
     1
  1
マーク
  1
*マーク
  1
*
  1
*
 70
     0
  1
*
  1
*
  0
XRECORD
  5
1091
102
{ACAD_REACTORS
330
EEB
102
}
330
EEB
100
AcDbXrecord
280
     1
  1
ﾒｲﾝﾌﾟﾗｻﾞ
  1
*め*
  1
*
  1
*
 70
     0
  1
*
  1
*
  0
XRECORD
  5
1092
102
{ACAD_REACTORS
330
EEB
102
}
330
EEB
100
AcDbXrecord
280
     1
  1
レベル
  1
*た*
  1
*
  1
*
 70
     0
  1
*
  1
*
  0
XRECORD
  5
1093
102
{ACAD_REACTORS
330
EEB
102
}
330
EEB
100
AcDbXrecord
280
     1
  1
ロック
  1
*
  1
*
  1
*
 70
   256
  1
*
  1
*
  0
XRECORD
  5
1094
102
{ACAD_REACTORS
330
EEB
102
}
330
EEB
100
AcDbXrecord
280
     1
  1
一括非表示
  1
*
  1
*
  1
*
 70
     3
  1
*
  1
*
  0
XRECORD
  5
1095
102
{ACAD_REACTORS
330
EEB
102
}
330
EEB
100
AcDbXrecord
280
     1
  1
一般図
  1
hatch
  1
*
  1
*
 70
     7
  1
*
  1
*
  0
XRECORD
  5
1096
102
{ACAD_REACTORS
330
EEB
102
}
330
EEB
100
AcDbXrecord
280
     1
  1
印刷
  1
*
  1
*
  1
*
 70
    13
  1
*
  1
*
  0
XRECORD
  5
1097
102
{ACAD_REACTORS
330
EEB
102
}
330
EEB
100
AcDbXrecord
280
     1
  1
荏原機器
  1
KIKI*
  1
*
  1
*
 70
     0
  1
*
  1
*
  0
XRECORD
  5
1098
102
{ACAD_REACTORS
330
EEB
102
}
330
EEB
100
AcDbXrecord
280
     1
  1
荏原機器基礎
  1
a3*,KIKI*,text*,stage,矢視記号
  1
*
  1
*
 70
     0
  1
*
  1
*
  0
XRECORD
  5
1099
102
{ACAD_REACTORS
330
EEB
102
}
330
EEB
100
AcDbXrecord
280
     1
  1
衛生設備図
  1
001*,002*,004*,005*,007*,010*,039*,040*,041*,042*,043*
  1
*
  1
*
 70
     0
  1
*
  1
*
  0
XRECORD
  5
109A
102
{ACAD_REACTORS
330
EEB
102
}
330
EEB
100
AcDbXrecord
280
     1
  1
黄色
  1
*
  1
YELLOW
  1
*
 70
     0
  1
*
  1
*
  0
XRECORD
  5
109B
102
{ACAD_REACTORS
330
EEB
102
}
330
EEB
100
AcDbXrecord
280
     1
  1
下階
  1
下階*
  1
*
  1
*
 70
     0
  1
*
  1
*
  0
XRECORD
  5
109C
102
{ACAD_REACTORS
330
EEB
102
}
330
EEB
100
AcDbXrecord
280
     1
  1
下地
  1
*-下
  1
*
  1
*
 70
     0
  1
*
  1
*
  0
XRECORD
  5
109D
102
{ACAD_REACTORS
330
EEB
102
}
330
EEB
100
AcDbXrecord
280
     1
  1
外構
  1
外構*
  1
*
  1
*
 70
     0
  1
*
  1
*
  0
XRECORD
  5
109E
102
{ACAD_REACTORS
330
EEB
102
}
330
EEB
100
AcDbXrecord
280
     1
  1
外部参照－建築
  1
A*
  1
9
  1
*
 70
     0
  1
*
  1
*
  0
XRECORD
  5
109F
102
{ACAD_REACTORS
330
EEB
102
}
330
EEB
100
AcDbXrecord
280
     1
  1
外部参照除く
  1
A*
  1
*
  1
*
 70
     0
  1
*
  1
*
  0
XRECORD
  5
10A0
102
{ACAD_REACTORS
330
EEB
102
}
330
EEB
100
AcDbXrecord
280
     1
  1
割り付け平面図
  1
*わ*
  1
*
  1
*
 70
     0
  1
*
  1
*
  0
XRECORD
  5
10A1
102
{ACAD_REACTORS
330
EEB
102
}
330
EEB
100
AcDbXrecord
280
     1
  1
割付平面図
  1
*わ*
  1
*
  1
*
 70
     0
  1
*
  1
*
  0
XRECORD
  5
10A2
102
{ACAD_REACTORS
330
EEB
102
}
330
EEB
100
AcDbXrecord
280
     1
  1
潅水平面
  1
*か*
  1
*
  1
*
 70
     0
  1
*
  1
*
  0
XRECORD
  5
10A3
102
{ACAD_REACTORS
330
EEB
102
}
330
EEB
100
AcDbXrecord
280
     1
  1
基
  1
*_基
  1
*
  1
*
 70
     0
  1
*
  1
*
  0
XRECORD
  5
10A4
102
{ACAD_REACTORS
330
EEB
102
}
330
EEB
100
AcDbXrecord
280
     1
  1
基準
  1
基*
  1
*
  1
*
 70
     0
  1
*
  1
*
  0
XRECORD
  5
10A5
102
{ACAD_REACTORS
330
EEB
102
}
330
EEB
100
AcDbXrecord
280
     1
  1
基準階
  1
*基準*
  1
*
  1
*
 70
     0
  1
*
  1
*
  0
XRECORD
  5
10A6
102
{ACAD_REACTORS
330
EEB
102
}
330
EEB
100
AcDbXrecord
280
     1
  1
基礎OFF
  1
+*
  1
*
  1
*
 70
     0
  1
*
  1
*
  0
XRECORD
  5
10A7
102
{ACAD_REACTORS
330
EEB
102
}
330
EEB
100
AcDbXrecord
280
     1
  1
基礎伏
  1
*
  1
*
  1
*
 70
     0
  1
*
  1
*
  0
XRECORD
  5
10A8
102
{ACAD_REACTORS
330
EEB
102
}
330
EEB
100
AcDbXrecord
280
     1
  1
基礎伏図
  1
SIZE,HOJO,ZATU,HATCH,GL-HARI,GL-HASIRA,KISO,KUI,MOJI-K1,GL-FUGO,SUNPO-K1,SUNPO,SUNPO2,SUNPO1,KIJUN3,KIJUN,SIZE
  1
*
  1
*
 70
     0
  1
*
  1
*
  0
XRECORD
  5
10A9
102
{ACAD_REACTORS
330
EEB
102
}
330
EEB
100
AcDbXrecord
280
     1
  1
基盤改良平面図
  1
*き*
  1
*
  1
*
 70
     0
  1
*
  1
*
  0
XRECORD
  5
10AA
102
{ACAD_REACTORS
330
EEB
102
}
330
EEB
100
AcDbXrecord
280
     1
  1
既存杭
  1
既存杭*
  1
*
  1
*
 70
     0
  1
*
  1
*
  0
XRECORD
  5
10AB
102
{ACAD_REACTORS
330
EEB
102
}
330
EEB
100
AcDbXrecord
280
     1
  1
機器
  1
KIKI*
  1
*
  1
*
 70
     0
  1
*
  1
*
  0
XRECORD
  5
10AC
102
{ACAD_REACTORS
330
EEB
102
}
330
EEB
100
AcDbXrecord
280
     1
  1
機器基礎
  1
a3*,KIKI*,text*,stage,矢視記号
  1
*
  1
*
 70
     0
  1
*
  1
*
  0
XRECORD
  5
10AD
102
{ACAD_REACTORS
330
EEB
102
}
330
EEB
100
AcDbXrecord
280
     1
  1
記号
  1
*記号
  1
*
  1
*
 70
     0
  1
*
  1
*
  0
XRECORD
  5
10AE
102
{ACAD_REACTORS
330
EEB
102
}
330
EEB
100
AcDbXrecord
280
     1
  1
給水設備平面図
  1
*み*
  1
*
  1
*
 70
     0
  1
*
  1
*
  0
XRECORD
  5
10AF
102
{ACAD_REACTORS
330
EEB
102
}
330
EEB
100
AcDbXrecord
280
     1
  1
給水平面
  1
*き*
  1
*
  1
*
 70
     0
  1
*
  1
*
  0
XRECORD
  5
10B0
102
{ACAD_REACTORS
330
EEB
102
}
330
EEB
100
AcDbXrecord
280
     1
  1
区画
  1
区画*
  1
*
  1
*
 70
     0
  1
*
  1
*
  0
XRECORD
  5
10B1
102
{ACAD_REACTORS
330
EEB
102
}
330
EEB
100
AcDbXrecord
280
     1
  1
躯体
  1
*A21*
  1
*
  1
*
 70
     0
  1
*
  1
*
  0
XRECORD
  5
10B2
102
{ACAD_REACTORS
330
EEB
102
}
330
EEB
100
AcDbXrecord
280
     1
  1
躯体図
  1
D*
  1
*
  1
*
 70
     0
  1
*
  1
*
  0
XRECORD
  5
10B3
102
{ACAD_REACTORS
330
EEB
102
}
330
EEB
100
AcDbXrecord
280
     1
  1
空調jv
  1
00i*
  1
*
  1
*
 70
     0
  1
*
  1
*
  0
XRECORD
  5
10B4
102
{ACAD_REACTORS
330
EEB
102
}
330
EEB
100
AcDbXrecord
280
     1
  1
空調設備図
  1
001*,002*,004*,005*,007*,010*,033*,034*,035*,036*,037*,038*
  1
*
  1
*
 70
     0
  1
*
  1
*
  0
XRECORD
  5
10B5
102
{ACAD_REACTORS
330
EEB
102
}
330
EEB
100
AcDbXrecord
280
     1
  1
郡川
  1
kijun,kabe,sunpo
  1
*
  1
*
 70
     3
  1
*
  1
*
  0
XRECORD
  5
10B6
102
{ACAD_REACTORS
330
EEB
102
}
330
EEB
100
AcDbXrecord
280
     1
  1
型枠計画図
  1
001*,002*,003*,004*,005*,006*,007*,010*,012*,050*,051*,055*,056*,057*,058*,059*,060*,061*,062*,063*,064*,065*,066*,067*,068*,069*,070*,071*,072*,073*,074*,075*
  1
*
  1
*
 70
     0
  1
*
  1
*
  0
XRECORD
  5
10B7
102
{ACAD_REACTORS
330
EEB
102
}
330
EEB
100
AcDbXrecord
280
     1
  1
計画高平面図
  1
*く*
  1
*
  1
*
 70
     0
  1
*
  1
*
  0
XRECORD
  5
10B8
102
{ACAD_REACTORS
330
EEB
102
}
330
EEB
100
AcDbXrecord
280
     1
  1
計画平面
  1
*け*
  1
*
  1
*
 70
     0
  1
*
  1
*
  0
XRECORD
  5
10B9
102
{ACAD_REACTORS
330
EEB
102
}
330
EEB
100
AcDbXrecord
280
     1
  1
計画平面図
  1
*け*
  1
*
  1
*
 70
     0
  1
*
  1
*
  0
XRECORD
  5
10BA
102
{ACAD_REACTORS
330
EEB
102
}
330
EEB
100
AcDbXrecord
280
     1
  1
劇場ﾌﾟﾗｻﾞ
  1
*え*
  1
*
  1
*
 70
     0
  1
*
  1
*
  0
XRECORD
  5
10BB
102
{ACAD_REACTORS
330
EEB
102
}
330
EEB
100
AcDbXrecord
280
     1
  1
劇場棟
  1
*げ*
  1
*
  1
*
 70
     0
  1
*
  1
*
  0
XRECORD
  5
10BC
102
{ACAD_REACTORS
330
EEB
102
}
330
EEB
100
AcDbXrecord
280
     1
  1
建具
  1
*-建
  1
*
  1
*
 70
     0
  1
*
  1
*
  0
XRECORD
  5
10BD
102
{ACAD_REACTORS
330
EEB
102
}
330
EEB
100
AcDbXrecord
280
     1
  1
建築接地図
  1
A01*
  1
*
  1
*
 70
     0
  1
*
  1
*
  0
XRECORD
  5
10BE
102
{ACAD_REACTORS
330
EEB
102
}
330
EEB
100
AcDbXrecord
280
     1
  1
見上げ
  1
*U
  1
*
  1
*
 70
     0
  1
*
  1
*
  0
XRECORD
  5
10BF
102
{ACAD_REACTORS
330
EEB
102
}
330
EEB
100
AcDbXrecord
280
     1
  1
現在非表示画層
  1
*
  1
*
  1
*
 70
     3
  1
*
  1
*
  0
XRECORD
  5
10C0
102
{ACAD_REACTORS
330
EEB
102
}
330
EEB
100
AcDbXrecord
280
     1
  1
光天井
  1
*-光
  1
*
  1
*
 70
     0
  1
*
  1
*
  0
XRECORD
  5
10C1
102
{ACAD_REACTORS
330
EEB
102
}
330
EEB
100
AcDbXrecord
280
     1
  1
公園
  1
K*
  1
*
  1
*
 70
     0
  1
*
  1
*
  0
XRECORD
  5
10C2
102
{ACAD_REACTORS
330
EEB
102
}
330
EEB
100
AcDbXrecord
280
     1
  1
工事区分図
  1
*じ*
  1
*
  1
*
 70
     0
  1
*
  1
*
  0
XRECORD
  5
10C3
102
{ACAD_REACTORS
330
EEB
102
}
330
EEB
100
AcDbXrecord
280
     1
  1
工事区分図AB
  1
*α*
  1
*
  1
*
 70
     0
  1
*
  1
*
  0
XRECORD
  5
10C4
102
{ACAD_REACTORS
330
EEB
102
}
330
EEB
100
AcDbXrecord
280
     1
  1
工事区分図CD
  1
*β*
  1
*
  1
*
 70
     0
  1
*
  1
*
  0
XRECORD
  5
10C5
102
{ACAD_REACTORS
330
EEB
102
}
330
EEB
100
AcDbXrecord
280
     1
  1
高さ
  1
204-TEXT,東西道路*
  1
*
  1
*
 70
     0
  1
*
  1
*
  0
XRECORD
  5
10C6
102
{ACAD_REACTORS
330
EEB
102
}
330
EEB
100
AcDbXrecord
280
     1
  1
高木植栽平面
  1
*こ*
  1
*
  1
*
 70
     0
  1
*
  1
*
  0
XRECORD
  5
10C7
102
{ACAD_REACTORS
330
EEB
102
}
330
EEB
100
AcDbXrecord
280
     1
  1
高木平面図
  1
*こ*
  1
*
  1
*
 70
     0
  1
*
  1
*
  0
XRECORD
  5
10C8
102
{ACAD_REACTORS
330
EEB
102
}
330
EEB
100
AcDbXrecord
280
     1
  1
座席のみ
  1
*
  1
*
  1
*
 70
     0
  1
*
  1
*
  0
XRECORD
  5
10C9
102
{ACAD_REACTORS
330
EEB
102
}
330
EEB
100
AcDbXrecord
280
     1
  1
作業
  1
100-*,地区*,
  1
*
  1
*
 70
     1
  1
*
  1
*
  0
XRECORD
  5
10CA
102
{ACAD_REACTORS
330
EEB
102
}
330
EEB
100
AcDbXrecord
280
     1
  1
参考
  1
六*
  1
*
  1
*
 70
     0
  1
*
  1
*
  0
XRECORD
  5
10CB
102
{ACAD_REACTORS
330
EEB
102
}
330
EEB
100
AcDbXrecord
280
     1
  1
山止根切計画図
  1
001*,002*,003*,004*,005*,007*,012*,049*,050*,051*,052*,053*,054*,055*,056*,057*,058*,059*,060*,061*,062*,064*,065*,066*,067*,068*,069*,070*,071*,072*,073*,074*,075*
  1
*
  1
*
 70
     0
  1
*
  1
*
  0
XRECORD
  5
10CC
102
{ACAD_REACTORS
330
EEB
102
}
330
EEB
100
AcDbXrecord
280
     1
  1
仕
  1
*_仕
  1
*
  1
*
 70
     0
  1
*
  1
*
  0
XRECORD
  5
10CD
102
{ACAD_REACTORS
330
EEB
102
}
330
EEB
100
AcDbXrecord
280
     1
  1
仕上
  1
*-2
  1
*
  1
*
 70
     0
  1
*
  1
*
  0
XRECORD
  5
10CE
102
{ACAD_REACTORS
330
EEB
102
}
330
EEB
100
AcDbXrecord
280
     1
  1
仕上図
  1
C*
  1
*
  1
*
 70
     0
  1
*
  1
*
  0
XRECORD
  5
10CF
102
{ACAD_REACTORS
330
EEB
102
}
330
EEB
100
AcDbXrecord
280
     1
  1
使用中
  1
使用中
  1
*
  1
*
 70
     1
  1
*
  1
*
  0
XRECORD
  5
10D0
102
{ACAD_REACTORS
330
EEB
102
}
330
EEB
100
AcDbXrecord
280
     1
  1
施設配置図
  1
*し*
  1
*
  1
*
 70
     0
  1
*
  1
*
  0
XRECORD
  5
10D1
102
{ACAD_REACTORS
330
EEB
102
}
330
EEB
100
AcDbXrecord
280
     1
  1
施設平面
  1
*し*
  1
*
  1
*
 70
     0
  1
*
  1
*
  0
XRECORD
  5
10D2
102
{ACAD_REACTORS
330
EEB
102
}
330
EEB
100
AcDbXrecord
280
     1
  1
施設平面図
  1
*し*
  1
*
  1
*
 70
     0
  1
*
  1
*
  0
XRECORD
  5
10D3
102
{ACAD_REACTORS
330
EEB
102
}
330
EEB
100
AcDbXrecord
280
     1
  1
紫
  1
*
  1
Magenta
  1
*
 70
     0
  1
*
  1
*
  0
XRECORD
  5
10D4
102
{ACAD_REACTORS
330
EEB
102
}
330
EEB
100
AcDbXrecord
280
     1
  1
床伏図
  1
*U*,20,Z20,Z22,Z23
  1
*
  1
*
 70
     0
  1
*
  1
*
  0
XRECORD
  5
10D5
102
{ACAD_REACTORS
330
EEB
102
}
330
EEB
100
AcDbXrecord
280
     1
  1
昇降機
  1
T*
  1
*
  1
*
 70
     0
  1
*
  1
*
  0
XRECORD
  5
10D6
102
{ACAD_REACTORS
330
EEB
102
}
330
EEB
100
AcDbXrecord
280
     1
  1
照明
  1
*ら*,*れ*
  1
*
  1
*
 70
     0
  1
*
  1
*
  0
XRECORD
  5
10D7
102
{ACAD_REACTORS
330
EEB
102
}
330
EEB
100
AcDbXrecord
280
     1
  1
照明Ｃ１
  1
*ら*
  1
*
  1
*
 70
     0
  1
*
  1
*
  0
XRECORD
  5
10D8
102
{ACAD_REACTORS
330
EEB
102
}
330
EEB
100
AcDbXrecord
280
     1
  1
照明Ｃ２
  1
*れ*
  1
*
  1
*
 70
     0
  1
*
  1
*
  0
XRECORD
  5
10D9
102
{ACAD_REACTORS
330
EEB
102
}
330
EEB
100
AcDbXrecord
280
     1
  1
照明配置図
  1
*め*
  1
*
  1
*
 70
     0
  1
*
  1
*
  0
XRECORD
  5
10DA
102
{ACAD_REACTORS
330
EEB
102
}
330
EEB
100
AcDbXrecord
280
     1
  1
詳細
  1
詳細*
  1
*
  1
*
 70
     0
  1
*
  1
*
  0
XRECORD
  5
10DB
102
{ACAD_REACTORS
330
EEB
102
}
330
EEB
100
AcDbXrecord
280
     1
  1
詳細図
  1
*u*,*w*,*y*,*x*,*s*,*V*,06
  1
*
  1
*
 70
     0
  1
*
  1
*
  0
XRECORD
  5
10DC
102
{ACAD_REACTORS
330
EEB
102
}
330
EEB
100
AcDbXrecord
280
     1
  1
上階躯体図
  1
KUTAI-Z,SIZE,HOJO,ZATU,HATCH,BR-S,KABE2,KABE,MAJIKIRI,KOBARI-S,KOBARI-R,HARI-S,HARI-R,HASIRA-S,HASIRA-R,MOJI-K2,FL-FUGO,FUGO-W,SUNPO-K2,SUNPO,SUNPO2,SUNPO1,KIJUN2,KIJUN1,KIJUN,
  1
*
  1
*
 70
     0
  1
*
  1
*
  0
XRECORD
  5
10DD
102
{ACAD_REACTORS
330
EEB
102
}
330
EEB
100
AcDbXrecord
280
     1
  1
植栽
  1
*木*
  1
*
  1
*
 70
     0
  1
*
  1
*
  0
XRECORD
  5
10DE
102
{ACAD_REACTORS
330
EEB
102
}
330
EEB
100
AcDbXrecord
280
     1
  1
植栽基盤平面
  1
*ど*
  1
*
  1
*
 70
     0
  1
*
  1
*
  0
XRECORD
  5
10DF
102
{ACAD_REACTORS
330
EEB
102
}
330
EEB
100
AcDbXrecord
280
     1
  1
植栽現況
  1
*植*
  1
*
  1
*
 70
     0
  1
*
  1
*
  0
XRECORD
  5
10E0
102
{ACAD_REACTORS
330
EEB
102
}
330
EEB
100
AcDbXrecord
280
     1
  1
植栽高木AB
  1
*λ*
  1
*
  1
*
 70
     0
  1
*
  1
*
  0
XRECORD
  5
10E1
102
{ACAD_REACTORS
330
EEB
102
}
330
EEB
100
AcDbXrecord
280
     1
  1
植栽高木CD
  1
*ｑ*
  1
*
  1
*
 70
     0
  1
*
  1
*
  0
XRECORD
  5
10E2
102
{ACAD_REACTORS
330
EEB
102
}
330
EEB
100
AcDbXrecord
280
     1
  1
植栽低木AB
  1
*γ*
  1
*
  1
*
 70
     0
  1
*
  1
*
  0
XRECORD
  5
10E3
102
{ACAD_REACTORS
330
EEB
102
}
330
EEB
100
AcDbXrecord
280
     1
  1
植栽低木ＣＤ
  1
*Θ*
  1
*
  1
*
 70
     0
  1
*
  1
*
  0
XRECORD
  5
10E4
102
{ACAD_REACTORS
330
EEB
102
}
330
EEB
100
AcDbXrecord
280
     1
  1
色番号8
  1
*
  1
8
  1
*
 70
     0
  1
*
  1
*
  0
XRECORD
  5
10E5
102
{ACAD_REACTORS
330
EEB
102
}
330
EEB
100
AcDbXrecord
280
     1
  1
申請用
  1
*あ*,*き*,*グ*,*み*,*オ*,*ピ*,*92*
  1
*
  1
*
 70
     0
  1
*
  1
*
  0
XRECORD
  5
10E6
102
{ACAD_REACTORS
330
EEB
102
}
330
EEB
100
AcDbXrecord
280
     1
  1
芯
  1
*芯
  1
*
  1
*
 70
     0
  1
*
  1
*
  0
XRECORD
  5
10E7
102
{ACAD_REACTORS
330
EEB
102
}
330
EEB
100
AcDbXrecord
280
     1
  1
芯関係
  1
001*,002*,032*
  1
*
  1
*
 70
     0
  1
*
  1
*
  0
XRECORD
  5
10E8
102
{ACAD_REACTORS
330
EEB
102
}
330
EEB
100
AcDbXrecord
280
     1
  1
水
  1
*
  1
cyan
  1
*
 70
     0
  1
*
  1
*
  0
XRECORD
  5
10E9
102
{ACAD_REACTORS
330
EEB
102
}
330
EEB
100
AcDbXrecord
280
     1
  1
水色
  1
*
  1
Cyan
  1
*
 70
     0
  1
*
  1
*
  0
XRECORD
  5
10EA
102
{ACAD_REACTORS
330
EEB
102
}
330
EEB
100
AcDbXrecord
280
     1
  1
寸法
  1
*寸法
  1
*
  1
*
 70
     0
  1
*
  1
*
  0
XRECORD
  5
10EB
102
{ACAD_REACTORS
330
EEB
102
}
330
EEB
100
AcDbXrecord
280
     1
  1
製作
  1
B*
  1
*
  1
*
 70
     0
  1
*
  1
*
  0
XRECORD
  5
10EC
102
{ACAD_REACTORS
330
EEB
102
}
330
EEB
100
AcDbXrecord
280
     1
  1
製作-躯体
  1
BS*
  1
*
  1
*
 70
     0
  1
*
  1
*
  0
XRECORD
  5
10ED
102
{ACAD_REACTORS
330
EEB
102
}
330
EEB
100
AcDbXrecord
280
     1
  1
製作-建築
  1
BD*
  1
*
  1
*
 70
     0
  1
*
  1
*
  0
XRECORD
  5
10EE
102
{ACAD_REACTORS
330
EEB
102
}
330
EEB
100
AcDbXrecord
280
     1
  1
製作-昇降機
  1
BT*
  1
*
  1
*
 70
     0
  1
*
  1
*
  0
XRECORD
  5
10EF
102
{ACAD_REACTORS
330
EEB
102
}
330
EEB
100
AcDbXrecord
280
     1
  1
青
  1
*
  1
blue
  1
*
 70
     0
  1
*
  1
*
  0
XRECORD
  5
10F0
102
{ACAD_REACTORS
330
EEB
102
}
330
EEB
100
AcDbXrecord
280
     1
  1
設備
  1
E*,P*,M*
  1
*
  1
*
 70
     0
  1
*
  1
*
  0
XRECORD
  5
10F1
102
{ACAD_REACTORS
330
EEB
102
}
330
EEB
100
AcDbXrecord
280
     1
  1
設備プロット
  1
02*
  1
*
  1
*
 70
     0
  1
*
  1
*
  0
XRECORD
  5
10F2
102
{ACAD_REACTORS
330
EEB
102
}
330
EEB
100
AcDbXrecord
280
     1
  1
全階平面図
  1
*
  1
*
  1
*
 70
     0
  1
*
  1
*
  0
XRECORD
  5
10F3
102
{ACAD_REACTORS
330
EEB
102
}
330
EEB
100
AcDbXrecord
280
     1
  1
総合仮設図
  1
001*,002*,003*,004*,005*,007*,012*,015*,016*,017*,018*,019*,020*,021*,049*,050*,051*,052*,053*,054*,055*,056*,057*,058*,059*,060*,061*,062*,063*,064*,065*,066*,067*,068*,069*,070*,071*,072*,073*,074*,075*
  1
*
  1
*
 70
     0
  1
*
  1
*
  0
XRECORD
  5
10F4
102
{ACAD_REACTORS
330
EEB
102
}
330
EEB
100
AcDbXrecord
280
     1
  1
総合図
  1
*z*,*u*,*w*,*y*,*x*,*V*,06
  1
*
  1
*
 70
     0
  1
*
  1
*
  0
XRECORD
  5
10F5
102
{ACAD_REACTORS
330
EEB
102
}
330
EEB
100
AcDbXrecord
280
     1
  1
足場計画図
  1
001*,002*,003*,004*,005*,007*,012*,015*,049*,050*,051*,055*,056*,057*,058*,059*,060*,061*,062*,064*,065*,066*,067*,068*,069*,070*,071*,072*,073*,074*,075*
  1
*
  1
*
 70
     0
  1
*
  1
*
  0
XRECORD
  5
10F6
102
{ACAD_REACTORS
330
EEB
102
}
330
EEB
100
AcDbXrecord
280
     1
  1
地下埋設
  1
*ち*
  1
*
  1
*
 70
     0
  1
*
  1
*
  0
XRECORD
  5
10F7
102
{ACAD_REACTORS
330
EEB
102
}
330
EEB
100
AcDbXrecord
280
     1
  1
中野
  1
中野*
  1
*
  1
*
 70
     0
  1
*
  1
*
  0
XRECORD
  5
10F8
102
{ACAD_REACTORS
330
EEB
102
}
330
EEB
100
AcDbXrecord
280
     1
  1
低木植栽平面
  1
*て*
  1
*
  1
*
 70
     0
  1
*
  1
*
  0
XRECORD
  5
10F9
102
{ACAD_REACTORS
330
EEB
102
}
330
EEB
100
AcDbXrecord
280
     1
  1
低木平面図
  1
*て*
  1
*
  1
*
 70
     0
  1
*
  1
*
  0
XRECORD
  5
10FA
102
{ACAD_REACTORS
330
EEB
102
}
330
EEB
100
AcDbXrecord
280
     1
  1
鉄骨
  1
*-1
  1
*
  1
*
 70
     0
  1
*
  1
*
  0
XRECORD
  5
10FB
102
{ACAD_REACTORS
330
EEB
102
}
330
EEB
100
AcDbXrecord
280
     1
  1
鉄骨建方計画図
  1
001*,002*,003*,004*,005*,007*,012*,013*,049*,050*,051*,052*,053*,054*,055*,056*,057*,058*,059*,060*,061*,062*,063*,064*,065*,066*,067*,068*,069*,070*,071*,072*,073*,074*,075*
  1
*
  1
*
 70
     0
  1
*
  1
*
  0
XRECORD
  5
10FC
102
{ACAD_REACTORS
330
EEB
102
}
330
EEB
100
AcDbXrecord
280
     1
  1
天井インサート図
  1
001*,002*,004*,010*,022*,023*,024*,025*,026*,027*,028*,029*,037*,042*
  1
*
  1
*
 70
     0
  1
*
  1
*
  0
XRECORD
  5
10FD
102
{ACAD_REACTORS
330
EEB
102
}
330
EEB
100
AcDbXrecord
280
     1
  1
天井総合図
  1
001*,002*,004*,005*,007*,010*,022*,023*,024*,025*,026*,027*,028*,029*,030*,031*,033*,035*,036*,037*,039*,041*,042*,044*,046*,047*
  1
*
  1
*
 70
     0
  1
*
  1
*
  0
XRECORD
  5
10FE
102
{ACAD_REACTORS
330
EEB
102
}
330
EEB
100
AcDbXrecord
280
     1
  1
天井伏図
  1
0,00*,01*,03*,05*,1*,2*,3*,4*,7*,9*
  1
*
  1
*
 70
     0
  1
*
  1
*
  0
XRECORD
  5
10FF
102
{ACAD_REACTORS
330
EEB
102
}
330
EEB
100
AcDbXrecord
280
     1
  1
天伏
  1
*05
  1
*
  1
*
 70
     0
  1
*
  1
*
  0
XRECORD
  5
1100
102
{ACAD_REACTORS
330
EEB
102
}
330
EEB
100
AcDbXrecord
280
     1
  1
電気設備図
  1
001*,002*,004*,005*,007*,010*,030*,031*,044*,045*,046*,047*,048*
  1
*
  1
*
 70
     0
  1
*
  1
*
  0
XRECORD
  5
1101
102
{ACAD_REACTORS
330
EEB
102
}
330
EEB
100
AcDbXrecord
280
     1
  1
土壌改良
  1
*ど*
  1
*
  1
*
 70
     0
  1
*
  1
*
  0
XRECORD
  5
1102
102
{ACAD_REACTORS
330
EEB
102
}
330
EEB
100
AcDbXrecord
280
     1
  1
土木計画平面図
  1
*^ *,*B*,*0*,*排*,*法*,*ﾊ*,*b*
  1
*
  1
*
 70
     0
  1
*
  1
*
  0
XRECORD
  5
1103
102
{ACAD_REACTORS
330
EEB
102
}
330
EEB
100
AcDbXrecord
280
     1
  1
道路
  1
R*
  1
*
  1
*
 70
     0
  1
*
  1
*
  0
XRECORD
  5
1104
102
{ACAD_REACTORS
330
EEB
102
}
330
EEB
100
AcDbXrecord
280
     1
  1
道路関係図
  1
001*,002*,003*,004*,007*,012*,015*,016*,017*,018*,019*,020*,021*,049*,050*,051*,052*,053*,054*,055*,056*,057*,058*,059*,060*,061*,062*,063*,064*,065*,066*,067*,068*,069*,070*,071*,072*,073*,074*,075*
  1
*
  1
*
 70
     0
  1
*
  1
*
  0
XRECORD
  5
1105
102
{ACAD_REACTORS
330
EEB
102
}
330
EEB
100
AcDbXrecord
280
     1
  1
排水
  1
*は*
  1
*
  1
*
 70
     0
  1
*
  1
*
  0
XRECORD
  5
1106
102
{ACAD_REACTORS
330
EEB
102
}
330
EEB
100
AcDbXrecord
280
     1
  1
排水設備平面図
  1
*は*
  1
*
  1
*
 70
     0
  1
*
  1
*
  0
XRECORD
  5
1107
102
{ACAD_REACTORS
330
EEB
102
}
330
EEB
100
AcDbXrecord
280
     1
  1
排水平面
  1
*は*
  1
*
  1
*
 70
     0
  1
*
  1
*
  0
XRECORD
  5
1108
102
{ACAD_REACTORS
330
EEB
102
}
330
EEB
100
AcDbXrecord
280
     1
  1
配管
  1
PIPE*
  1
*
  1
*
 70
     0
  1
*
  1
*
  0
XRECORD
  5
1109
102
{ACAD_REACTORS
330
EEB
102
}
330
EEB
100
AcDbXrecord
280
     1
  1
非表示
  1
*
  1
*
  1
*
 70
     3
  1
*
  1
*
  0
XRECORD
  5
110A
102
{ACAD_REACTORS
330
EEB
102
}
330
EEB
100
AcDbXrecord
280
     1
  1
非表示ﾚｲﾔｰ
  1
*-z
  1
*
  1
*
 70
     0
  1
*
  1
*
  0
XRECORD
  5
110B
102
{ACAD_REACTORS
330
EEB
102
}
330
EEB
100
AcDbXrecord
280
     1
  1
表示
  1
*
  1
*
  1
*
 70
     1
  1
*
  1
*
  0
XRECORD
  5
110C
102
{ACAD_REACTORS
330
EEB
102
}
330
EEB
100
AcDbXrecord
280
     1
  1
表示・非表示
  1
*
  1
*
  1
*
 70
     1
  1
*
  1
*
  0
XRECORD
  5
110D
102
{ACAD_REACTORS
330
EEB
102
}
330
EEB
100
AcDbXrecord
280
     1
  1
表示2
  1
*
  1
*
  1
*
 70
   257
  1
*
  1
*
  0
XRECORD
  5
110E
102
{ACAD_REACTORS
330
EEB
102
}
330
EEB
100
AcDbXrecord
280
     1
  1
分割枠
  1
枠*
  1
*
  1
*
 70
     0
  1
*
  1
*
  0
XRECORD
  5
110F
102
{ACAD_REACTORS
330
EEB
102
}
330
EEB
100
AcDbXrecord
280
     1
  1
平面詳細図
  1
SUNPO-S,SIZE,HOJO,ZATU,HATCH,HWAKU,HMOJI,WARITUKE-T,WARITUKE-Y,WARITUKE-K,TATEGU1,TATEGU,BR-S,MAJIKIRI,KABE2,SIAGE,KABE1,KABE,KOBARI-S,KOBARI-R,HARI-S,HARI-R,HASIRA-S,HASIRA-R,MOJI,SHITUMEI,LABEL,FL-FUGO,FUGO-W,SUNPO,SUNPO2,SUNPO1,KIJUN2,KIJUN1,KIJUN
  1
*
  1
*
 70
     0
  1
*
  1
*
  0
XRECORD
  5
1110
102
{ACAD_REACTORS
330
EEB
102
}
330
EEB
100
AcDbXrecord
280
     1
  1
平面図
  1
*HMOJI,*HOJO2,*HOJO3,*SINSEI,*FUGOT
  1
*
  1
*
 70
     0
  1
*
  1
*
  0
XRECORD
  5
1111
102
{ACAD_REACTORS
330
EEB
102
}
330
EEB
100
AcDbXrecord
280
     1
  1
平面総合図
  1
001*,002*,004*,010*,013*,014*,015*,016*,017*,018*,019*,020*,021*,030*,031*,034*,040*,045*
  1
*
  1
*
 70
     0
  1
*
  1
*
  0
XRECORD
  5
1112
102
{ACAD_REACTORS
330
EEB
102
}
330
EEB
100
AcDbXrecord
280
     1
  1
変更分
  1
六*
  1
*
  1
*
 70
     0
  1
*
  1
*
  0
XRECORD
  5
1113
102
{ACAD_REACTORS
330
EEB
102
}
330
EEB
100
AcDbXrecord
280
     1
  1
舗装平面
  1
*ほ*
  1
*
  1
*
 70
     0
  1
*
  1
*
  0
XRECORD
  5
1114
102
{ACAD_REACTORS
330
EEB
102
}
330
EEB
100
AcDbXrecord
280
     1
  1
舗装平面C1
  1
*α*
  1
*
  1
*
 70
     0
  1
*
  1
*
  0
XRECORD
  5
1115
102
{ACAD_REACTORS
330
EEB
102
}
330
EEB
100
AcDbXrecord
280
     1
  1
舗装平面C2
  1
*β*
  1
*
  1
*
 70
     0
  1
*
  1
*
  0
XRECORD
  5
1116
102
{ACAD_REACTORS
330
EEB
102
}
330
EEB
100
AcDbXrecord
280
     1
  1
舗装平面図
  1
*ほ*
  1
*
  1
*
 70
     0
  1
*
  1
*
  0
XRECORD
  5
1117
102
{ACAD_REACTORS
330
EEB
102
}
330
EEB
100
AcDbXrecord
280
     1
  1
法規チェック－区画
  1
*92
  1
*
  1
*
 70
     0
  1
*
  1
*
  0
XRECORD
  5
1118
102
{ACAD_REACTORS
330
EEB
102
}
330
EEB
100
AcDbXrecord
280
     1
  1
法規チェック－範囲
  1
*0
  1
*
  1
*
 70
     0
  1
*
  1
*
  0
XRECORD
  5
1119
102
{ACAD_REACTORS
330
EEB
102
}
330
EEB
100
AcDbXrecord
280
     1
  1
鳳文字入力
  1
*
  1
*
  1
*
 70
     0
  1
*
  1
*
  0
XRECORD
  5
111A
102
{ACAD_REACTORS
330
EEB
102
}
330
EEB
100
AcDbXrecord
280
     1
  1
防災
  1
B*
  1
*
  1
*
 70
   768
  1
*
  1
*
  0
XRECORD
  5
111B
102
{ACAD_REACTORS
330
EEB
102
}
330
EEB
100
AcDbXrecord
280
     1
  1
名称
  1
*名称
  1
*
  1
*
 70
     0
  1
*
  1
*
  0
XRECORD
  5
111C
102
{ACAD_REACTORS
330
EEB
102
}
330
EEB
100
AcDbXrecord
280
     1
  1
面積
  1
*
  1
*
  1
*
 70
     3
  1
*
  1
*
  0
XRECORD
  5
111D
102
{ACAD_REACTORS
330
EEB
102
}
330
EEB
100
AcDbXrecord
280
     1
  1
擁壁平面図
  1
*よ*
  1
*
  1
*
 70
     0
  1
*
  1
*
  0
XRECORD
  5
111E
102
{ACAD_REACTORS
330
EEB
102
}
330
EEB
100
AcDbXrecord
280
     1
  1
用途色塗
  1
*1-*
  1
*
  1
*
 70
     0
  1
*
  1
*
  0
XRECORD
  5
111F
102
{ACAD_REACTORS
330
EEB
102
}
330
EEB
100
AcDbXrecord
280
     1
  1
立面図
  1
*HOJO2
  1
*
  1
*
 70
     0
  1
*
  1
*
  0
XRECORD
  5
1120
102
{ACAD_REACTORS
330
EEB
102
}
330
EEB
100
AcDbXrecord
280
     1
  1
梁
  1
0,08*,17*,梁*
  1
*
  1
*
 70
     0
  1
*
  1
*
  0
XRECORD
  5
1121
102
{ACAD_REACTORS
330
EEB
102
}
330
EEB
100
AcDbXrecord
280
     1
  1
緑
  1
*
  1
Green
  1
*
 70
     0
  1
*
  1
*
  0
ENDSEC
  0
EOF
